Важное объявление!
У Нас Все раздачи мультитрекерные, при нуле пиров в релизах, можете смело вставать на закачку!
 
Автор Сообщение

HUNTER

Стаж:
4 года 4 месяца
Сообщений:
56829

Репутация: 101

[+] [-]
Вне форума [Профиль] [ЛС]

Снежная королева
Страна: Россия
Жанр: Мультфильм
Продолжительность: 01:12:58
Год выпуска: 2012
Перевод: Не требуется
Русские субтитры: нет
Режиссёр: Максим Свешников, Владлен Барбэ
Роли озвучивали: Иван Охлобыстин, Нюша, Анна Ардова, Рамиля Искандер, Дмитрий Нагиев, Елизавета Арзамасова, Галина Тюнина, Юрий Стоянов, Людмила Артемьева, Михаил Тихонов
Описание: Эта история случилась очень давно, когда далеко на севере появилась Снежная королева... С тех пор по всей Земле стали наступать холода. Люди очень боялись Снежную королеву, кроме нескольких смельчаков, которых называли добрыми волшебниками. Но она быстро расправилась с ними, кроме мастера Вегарда, который делал удивительные зеркала. Эти волшебные зеркала умели показывать самую глубину души любого, кто в них смотрелся. А душа жестокой королевы хранила страшную тайну... Но однажды ей всё же удалось настичь Вегарда и заморозить его и его жену. Только их детей ей не удалось убить - Герду и Кая: их защитило зеркальце, сделанное отцом. Но прошло время и Снежная королева узнаёт, что есть наследник Вегарда - Кай. И на поиски её последнего врага она посылает своего раба-гоблина. Но пока никто, даже Кай, не знают, что в этом же приюте, где он рос после смерти родителей, живёт его сестра - самая лучшая девочка, какую он когда-либо видел...
Доп. информация: Диск содержит версии в 2D и 3D
Семпл: https://www.sendspace.com/file/6l5kxr
Качество: DVD9
Формат: DVD-video
Видео: MPEG Video; 6884 Кбит/сек; 720х576 (16:9); 25,000 кадров/сек; pal
Аудио: AC-3; 448 Кбит/сек; 6 каналов; 48,0 КГц
Субтитры: Отсутствуют

DVDInfo

Title: Снежная королева (2012) [rutracker.org]Size: 7.29 Gb ( 7 642 320,00 KBytes ) - DVD-9Enabled regions: 1, 2, 3, 4, 5, 6, 7, 8
VTS_01 : Play Length: 00:00:16 Video: PAL 16:9 (720x576) VBR, Auto Letterboxed Audio: Russian (Dolby AC3, 2 ch)
VTS_02 : Play Length: 01:12:58+01:12:58 Video: PAL 16:9 (720x576) VBR, Auto Letterboxed Audio: Russian, AC3, 3/2 (L,C,R,SL,SR)+LFE ch, 448 kbps, Delay 0 mSec

Скриншоты меню

Скриншоты

mi

Общее
Полное имя : E:\закачки\Снежная королева (2012) [rutracker.org]\VIDEO_TS\VTS_02_3.VOB
Формат : MPEG-PS
Размер файла : 1024 Мбайт
Продолжительность : 19 м.
Режим общего битрейта : Переменный
Общий поток : 7481 Кбит/сек
Видео
Идентификатор : 224 (0xE0)
Формат : MPEG Video
Версия формата : Version 2
Профиль формата : Main@Main
Параметр BVOP формата : Да
Параметр матрицы формата : Выборочная
Параметр GOP формата : Variable
Продолжительность : 19 м.
Вид битрейта : Переменный
Битрейт : 6884 Кбит/сек
Максимальный битрейт : 8500 Кбит/сек
Ширина : 720 пикселей
Высота : 576 пикселей
Соотношение сторон : 16:9
Частота кадров : 25,000 кадров/сек
Стандарт вещания : PAL
Цветовое пространство : YUV
Субдискретизация насыщенности : 4:2:0
Битовая глубина : 8 бит
Тип развёртки : Прогрессивная
Метод сжатия : С потерями
Бит/(Пиксели*Кадры) : 0.664
Временной код первого кадра : 00:42:04:11
Оригинал временного кода : Group of pictures header
Размер потока : 942 Мбайт (92%)
Аудио
Идентификатор : 189 (0xBD)-128 (0x80)
Формат : AC-3
Формат/Информация : Audio Coding 3
Расширение режима : CM (complete main)
Параметр Endianness формата : Big
Режим смешивания : DVD-Video
Продолжительность : 19 м.
Вид битрейта : Постоянный
Битрейт : 448 Кбит/сек
Каналы : 6 каналов
Расположение каналов : Front: L C R, Side: L R, LFE
Частота : 48,0 КГц
Битовая глубина : 16 бит
Метод сжатия : С потерями
Задержка видео : -520 мс.
Размер потока : 61,3 Мбайт (6%)
Меню

_________________
Показать сообщения:    

Текущее время: Сегодня 11:07

Часовой пояс: GMT



Вы не можете начинать темы
Вы не можете отвечать на сообщения
Вы не можете редактировать свои сообщения
Вы не можете удалять свои сообщения
Вы не можете голосовать в опросах
Вы не можете прикреплять файлы к сообщениям
Вы не можете скачивать файлы