Важное объявление!
У Нас Все раздачи мультитрекерные, при нуле пиров в релизах, можете смело вставать на закачку!
 
Автор Сообщение

HUNTER

Стаж:
4 года 4 месяца
Сообщений:
56798

Репутация: 101

[+] [-]
Вне форума [Профиль] [ЛС]

Снайперы: Любовь под прицелом (сериал)-
Год выпуска: 2012
Страна: Россия
Жанр: драма, военный
Продолжительность: 00:49:07
Кол-во серий/сезонов: Серии: 1-8 из 8
Перевод: Оригинал-Режиссер: Зиновий Ройзман
Сценарий: Евгений Куратов
Продюсер: Рубен Дишдишян, Арам Мовсесян, Елена Денисевич
Оператор: Виталий Коневцов
Композитор: Евгений Ширяев
Художник: Юрий Устинов-В ролях: Татьяна Арнтгольц , Борис Плотников , Александр Устюгов , Дмитрий Быковский-Ромашов , Юрий Назаров , Александр Франскевич-Лайе , Валерия Ланская , Светлана Устинова
-Описание: Два снайпера — немец и русская — полюбили друг друга, когда СССР и Германия были союзниками. Но начинается война, и отныне они — смертельные враги.-Премьера (мир): 17 декабря 2012
Рейтинг:-Качество: SATRip
Формат: AVI
Видео кодек: XviD
Аудио кодеk: MP3
Видео: 720x384 (1.88:1), 25 fps, XviD build 64 ~1366 kbps avg, 0.20 bit/pixel
Аудио: Аудио #1: 48 kHz, MPEG Layer 3, 2 ch, ~192.00 kbps avg
-

МедиаИнфо

Код: copyText_writeLink('this.parentNode.parentNode.nextSibling.nextSibling'); General
Complete name : Snaipery.Lyubov.pod.pritselom.01.2012.SATRip.avi
Format : AVI
Format/Info : Audio Video Interleave
File size : 550 MiB
Duration : 49mn 7s
Overall bit rate : 1 566 Kbps
Writing application : VirtualDubMod 1.5.4.1 (build 2178/release)
Writing library : VirtualDubMod build 2178/release
Video
ID : 0
Format : MPEG-4 Visual
Format profile : Advanced Simple@L5
Format settings, BVOP : Yes
Format settings, QPel : No
Format settings, GMC : No warppoints
Format settings, Matrix : Custom
Codec ID : XVID
Codec ID/Hint : XviD
Duration : 49mn 7s
Bit rate : 1 366 Kbps
Width : 720 pixels
Height : 384 pixels
Display aspect ratio : 1.875
Frame rate : 25.000 fps
Color space : YUV
Chroma subsampling : 4:2:0
Bit depth : 8 bits
Scan type : Progressive
Bits/(Pixel*Frame) : 0.198
Stream size : 480 MiB (87%)
Writing library : XviD 64
Audio
ID : 1
Format : MPEG Audio
Format version : Version 1
Format profile : Layer 3
Mode : Joint stereo
Mode extension : MS Stereo
Codec ID : 55
Codec ID/Hint : MP3
Duration : 49mn 7s
Bit rate mode : Constant
Bit rate : 192 Kbps
Channel(s) : 2 channels
Sampling rate : 48.0 KHz
Stream size : 67.5 MiB (12%)
Alignment : Aligned on interleaves
Interleave, duration : 80 ms (2.00 video frames)
Interleave, preload duration : 504 ms
Writing library : LAME3.98r
Encoding settings : -m j -V 4 -q 2 -lowpass 18.6 -b 192
-
- -

_________________
Показать сообщения:    

Текущее время: Сегодня 04:11

Часовой пояс: GMT



Вы не можете начинать темы
Вы не можете отвечать на сообщения
Вы не можете редактировать свои сообщения
Вы не можете удалять свои сообщения
Вы не можете голосовать в опросах
Вы не можете прикреплять файлы к сообщениям
Вы не можете скачивать файлы