Важное объявление!
У Нас Все раздачи мультитрекерные, при нуле пиров в релизах, можете смело вставать на закачку!
 
Автор Сообщение

HUNTER

Стаж:
4 года 4 месяца
Сообщений:
56722

Репутация: 101

[+] [-]
Вне форума [Профиль] [ЛС]

Смоки и бандит 3 / The Smokey And The Bandit 3
Страна: США
Студия: Universal Pictures
Жанр: комедия, криминал
Год выпуска: 1983
Продолжительность: 01:24:50
Перевод: Профессиональный (многоголосый закадровый)
Перевод 2: Авторский (одноголосый закадровый) В. Королёв
Cубтитры: английские
Оригинальная аудиодорожка: английский
Режиссер: Дик Лоури / Dick Lowry
В ролях: Джеки Глисон, Джерри Рид, Пол Уильямс, Пэт МакКормик, Майк Хенри, Коллин Кэмп, Фэйт Минтон, Берт Рейнольдс
Описание: Шериф Бьюфорд Джастис уходит на пенсию, но заскучав, он возвращается и на спор с братьями Бердетами берется провезти через несколько штатов чучело рыбы за определенное время. Выиграет — получает 250,000 долларов, проиграет — отдает свой значок. Одновременно братья нанимают Снеговика, чтобы он переодевшись в Бандита, помешал шерифу успеть вовремя…

Sample
Тип релиза: WEB-DL 1080p
Контейнер: MKV
Видео: MPEG4 AVC Video, H264, 1916x810, 23.976 fps, 4676 kbps
Аудио: Russian (AC3, 2 ch, 192 kbps, 16 bits, 48.0 KHz) - MVO
Аудио 2: Russian (AC3, 2 ch, 192 kbps, 16 bits, 48.0 KHz) - Королёв
Аудио 3: English (AAC, 2 ch, 105 kbps, 16 bits, 48.0 KHz) - оригинал
Формат субтитров: softsub (SRT)

MediaInfo

General
Unique ID : 227042491145308852632242839046047046438 (0xAACECB116A95F049B14A9A636C9A9B26)
Complete name : E:\Smokey and the Bandit 3 WEB-DL 1080p.mkv
Format : Matroska
Format version : Version 4 / Version 2
File size : 3.12 GiB
Duration : 1h 24mn
Overall bit rate : 5 272 Kbps
Encoded date : UTC 2016-03-20 09:19:17
Writing application : mkvmerge v6.1.0 ('Old Devil') built on Mar 2 2013 14:32:37
Writing library : libebml v1.3.0 + libmatroska v1.4.0
Video
ID : 1
Format : AVC
Format/Info : Advanced Video Codec
Format profile : High@L4.0
Format settings, CABAC : Yes
Format settings, ReFrames : 5 frames
Codec ID : V_MPEG4/ISO/AVC
Duration : 1h 24mn
Width : 1 916 pixels
Height : 810 pixels
Display aspect ratio : 2.35:1
Frame rate mode : Constant
Frame rate : 23.976 fps
Color space : YUV
Chroma subsampling : 4:2:0
Bit depth : 8 bits
Scan type : Progressive
Language : English
Default : Yes
Forced : No
Color primaries : BT.709
Transfer characteristics : BT.709
Matrix coefficients : BT.709
Audio #1
ID : 2
Format : AC-3
Format/Info : Audio Coding 3
Mode extension : CM (complete main)
Format settings, Endianness : Big
Codec ID : A_AC3
Duration : 1h 24mn
Bit rate mode : Constant
Bit rate : 192 Kbps
Channel count : 2 channels
Channel positions : Front: L R
Sampling rate : 48.0 KHz
Bit depth : 16 bits
Compression mode : Lossy
Stream size : 117 MiB (4%)
Title : MVO
Language : Russian
Default : Yes
Forced : No
Audio #2
ID : 3
Format : AC-3
Format/Info : Audio Coding 3
Mode extension : CM (complete main)
Format settings, Endianness : Big
Codec ID : A_AC3
Duration : 1h 24mn
Bit rate mode : Constant
Bit rate : 192 Kbps
Channel count : 2 channels
Channel positions : Front: L R
Sampling rate : 48.0 KHz
Bit depth : 16 bits
Compression mode : Lossy
Stream size : 117 MiB (4%)
Title : В. Королёв
Language : Russian
Default : No
Forced : No
Audio #3
ID : 4
Format : AAC
Format/Info : Advanced Audio Codec
Format profile : LC
Codec ID : A_AAC
Duration : 1h 24mn
Channel count : 2 channels
Channel positions : Front: L R
Sampling rate : 48.0 KHz
Compression mode : Lossy
Language : English
Default : No
Forced : No
Text
ID : 5
Format : UTF-8
Codec ID : S_TEXT/UTF8
Codec ID/Info : UTF-8 Plain Text
Language : English
Default : No
Forced : No
Menu
00:00:00.000 : en:Once Upon a Time
00:02:43.000 : en:A Bet for the Badge
00:06:54.000 : en:Retired Justice (Main Titles)
00:09:50.000 : en:What's the Catch?
00:18:27.000 : en:Call the Snow Man
00:21:29.000 : en:"Klan Clowns"
00:24:29.000 : en:Ready for the Bandit?
00:28:13.000 : en:Special of the Week
00:32:15.000 : en:Hot Pursuit
00:39:54.000 : en:Skull Orchard
00:43:15.000 : en:"Like Stink on a Skunk"
00:49:39.000 : en:Thrill Show
00:53:13.000 : en:The Come On Inn
01:00:51.000 : en:Time to Turn Off the Siren
01:06:40.000 : en:A Bum Steer
01:11:56.000 : en:Under Siege
01:18:16.000 : en:Kindred Spirits
01:21:34.000 : en:End Titles

Скриншоты


_________________
Показать сообщения:    

Текущее время: Сегодня 10:56

Часовой пояс: GMT



Вы не можете начинать темы
Вы не можете отвечать на сообщения
Вы не можете редактировать свои сообщения
Вы не можете удалять свои сообщения
Вы не можете голосовать в опросах
Вы не можете прикреплять файлы к сообщениям
Вы не можете скачивать файлы