Важное объявление!
У Нас Все раздачи мультитрекерные, при нуле пиров в релизах, можете смело вставать на закачку!
 
Автор Сообщение

HUNTER

Стаж:
4 года 4 месяца
Сообщений:
56755

Репутация: 101

[+] [-]
Вне форума [Профиль] [ЛС]

Смешарики. Начало
Страна: Россия
Жанр: мультфильм, комедия, приключения, семейный
Продолжительность: 01:30:56
Год выпуска: 2011
Режиссёр: Денис Чернов
Роли озвучивали: Михаил Черняк, Сергей Мардарь, Антон Виноградов, Владимир Постников, Светлана Письмиченко, Вадим Бочанов, Михаил Хрусталев, Станислав Концевич, Владимир Маслаков, Ксения Бржезовская
Описание: Такую экстремальную историю про Смешариков вы не могли себе представить: покинув свою уютную страну, Смешарики оказываются в современном мегаполисе в роли супергероев! Зачем? Они приняли очень важное для себя решение — спасти мир от нависшей угрозы. Этот «ответственный» шаг приводит к самому захватывающему приключению в их жизни!
Релиз от:
Автор рипа: yaroslaigor
Семпл: http://multi-up.com/661785
Качество: BDRip
Формат: AVI
Видео: 704x400 (1.76:1), 23.976 fps, XviD build 72 ~1827 kbps avg, 0.27 bit/pixel
Аудио: 48 kHz, AC3 Dolby Digital, 3/2 (L,C,R,l,r) + LFE ch, ~448 kbps avg

Подробные технические данные

GeneralComplete name : D:\Smeshariki.Nachalo.2011.RUS.BDRip.XviD.AC3.-HQCLUB.aviFormat : AVIFormat/Info : Audio Video InterleaveFile size : 1.45 GiBDuration : 1h 30mnOverall bit rate : 2 285 KbpsMovie name : Смешарики. Начало (2011) BDRipDirector : yaroslaigorGenre : мультфильм, комедияWriting application : VirtualDubMod 1.5.10.2 (build 2540/release)Copyright : http://hqclub.net/Comment : 03.03.2012
VideoID : 0Format : MPEG-4 VisualFormat profile : Advanced Simple@L5Format settings, BVOP : 1Format settings, QPel : NoFormat settings, GMC : No warppointsFormat settings, Matrix : CustomCodec ID : XVIDCodec ID/Hint : XviDDuration : 1h 30mnBit rate : 1 827 KbpsWidth : 704 pixelsHeight : 400 pixelsDisplay aspect ratio : 16:9Frame rate : 23.976 fpsColor space : YUVChroma subsampling : 4:2:0Bit depth : 8 bitsScan type : ProgressiveCompression mode : LossyBits/(Pixel*Frame) : 0.271Stream size : 1.16 GiB (80%)Writing library : XviD 72
AudioID : 1Format : AC-3Format/Info : Audio Coding 3Mode extension : CM (complete main)Codec ID : 2000Duration : 1h 30mnBit rate mode : ConstantBit rate : 448 KbpsChannel(s) : 6 channelsChannel positions : Front: L C R, Side: L R, LFESampling rate : 48.0 KHzBit depth : 16 bitsCompression mode : LossyStream size : 291 MiB (20%)Alignment : Split accross interleavesInterleave, duration : 42 ms (1.00 video frame)Interleave, preload duration : 500 ms

Скриншоты


_________________
Показать сообщения:    

Текущее время: Сегодня 15:44

Часовой пояс: GMT



Вы не можете начинать темы
Вы не можете отвечать на сообщения
Вы не можете редактировать свои сообщения
Вы не можете удалять свои сообщения
Вы не можете голосовать в опросах
Вы не можете прикреплять файлы к сообщениям
Вы не можете скачивать файлы