Важное объявление!
У Нас Все раздачи мультитрекерные, при нуле пиров в релизах, можете смело вставать на закачку!
 
Автор Сообщение

HUNTER

Стаж:
4 года 4 месяца
Сообщений:
56839

Репутация: 101

[+] [-]
Вне форума [Профиль] [ЛС]

-Смешанные / Blended
Страна: США
Студия: Gulfstream Pictures, Happy Madison Productions, Karz Entertainment, Warner Bros. Pictures, Warner Brothers
Жанр: Комедия, семейный
Год выпуска: 2014
Продолжительность: 01:57:13-Перевод : Профессиональный (полное дублирование), BD EUR
Оригинальная аудиодорожка: английский
Cубтитры: русские, английские
Режиссер: Фрэнк Корачи / Frank Coraci
В ролях: Адам Сэндлер, Дрю Бэрримор, Кевин Нилон, Терри Крюс, Венди МакЛендон-Кови, Эмма Фурманн, Белла Торн, Брэкстон Бэкхам, Аливия Элин Линд, Джоэл МакХэйл
Описание: После катастрофического свидания «вслепую» родители-одиночки Лорен и Джим согласны только в одном: они не хотят больше видеть друг друга никогда! Полагая, что их знакомство окончено, обе семьи пользуются удобным случаем и отправляются в идеальный отпуск с детьми. А оказываются в одних и тех же гостиничных апартаментах на роскошном южноафриканском курорте аж на целую неделю.-
Сэмпл: скачать-Релиз от -
Автор рипа: Elheym
Качество: BDRip 1080p (источник: / Blu-ray EUR / 1080p)
Контейнер: MKV
Видео: 1920x1036 (1.85:1), 23.976 fps, MPEG-4 AVC, ~16900 kbps, 0.354 bit/pixel
Аудио #1: Русский: AC3, 5.1, 48 kHz, ~640 Кбит/с | Профессиональный (полное дублирование), BD EUR |
Аудио #2: Английский: DTS, 5.1, 48 kHz, ~1509 Кбит/с | Оригинал |
Субтитры: Русские (полные, форсированные), Английские (полные, полные SDH, полные SDH Colored)
Главы: Присутствуют, сохранены оригинальные

MediaInfo

Уникальный идентификатор : 217084321475264847767921372207066921823 (0xA350EB65927FF50ABF9E01B4DC203B5F)
Полное имя : Blended.2014.1080p.BluRay.Rus.Eng.-HQCLUB.mkv
Формат : Matroska
Версия формата : Version 2
Размер файла : 15,6 Гбайт
Продолжительность : 1 ч. 57 м.
Общий поток : 19,0 Мбит/сек
Дата кодирования : UTC 2014-10-06 10:45:07
Программа кодирования : mkvmerge v5.2.0 ('I can't explain') built on Dec 18 2011 18:12:03
Библиотека кодирования : libebml v1.2.3 + libmatroska v1.3.0
Видео
Идентификатор : 1
Формат : AVC
Формат/Информация : Advanced Video Codec
Профиль формата : High@L4.1
Параметр CABAC формата : Да
Параметр ReFrames формата : 3 кадра
Идентификатор кодека : V_MPEG4/ISO/AVC
Продолжительность : 1 ч. 57 м.
Битрейт : 16,9 Мбит/сек
Ширина : 1920 пикселей
Высота : 1036 пикселей
Соотношение сторон : 1,85:1
Режим частоты кадров : Постоянный
Частота кадров : 23,976 кадра/сек
Цветовое пространство : YUV
Субдискретизация насыщенности : 4:2:0
Битовая глубина : 8 бит
Тип развёртки : Прогрессивная
Бит/(Пиксели*Кадры) : 0.354
Размер потока : 13,5 Гбайт (87%)
Заголовок : Смешанные / Blended (2014) BDRip 1080p by HQCLUB [Elheym]
Библиотека кодирования : x264 core 142 r2479kMod dd79a61
Настройки программы : cabac=1 / ref=4 / deblock=1:-3:-2 / analyse=0x3:0x113 / me=umh / subme=11 / psy=1 / fade_compensate=0.00 / psy_rd=1.12:0.05 / mixed_ref=1 / me_range=32 / chroma_me=1 / trellis=2 / 8x8dct=1 / cqm=0 / deadzone=21,11 / fast_pskip=0 / chroma_qp_offset=-5 / threads=6 / lookahead_threads=1 / sliced_threads=0 / nr=0 / decimate=1 / interlaced=0 / bluray_compat=0 / constrained_intra=0 / fgo=0 / bframes=9 / b_pyramid=1 / b_adapt=2 / b_bias=0 / direct=3 / weightb=1 / open_gop=0 / weightp=2 / keyint=230 / keyint_min=23 / scenecut=40 / intra_refresh=0 / rc_lookahead=40 / rc=2pass / mbtree=0 / bitrate=16900 / ratetol=1.0 / qcomp=0.60 / qpmin=0 / qpmax=69 / qpstep=4 / cplxblur=20.0 / qblur=0.5 / vbv_maxrate=50000 / vbv_bufsize=62500 / nal_hrd=none / filler=0 / ip_ratio=1.40 / pb_ratio=1.30 / aq=1:0.50
Язык : English
Default : Да
Forced : Нет
Аудио #1
Идентификатор : 2
Формат : AC-3
Формат/Информация : Audio Coding 3
Расширение режима : CM (complete main)
Параметр Endianness формата : Big
Идентификатор кодека : A_AC3
Продолжительность : 1 ч. 57 м.
Вид битрейта : Постоянный
Битрейт : 640 Кбит/сек
Каналы : 6 каналов
Расположение каналов : Front: L C R, Side: L R, LFE
Частота : 48,0 КГц
Битовая глубина : 16 бит
Метод сжатия : С потерями
Размер потока : 537 Мбайт (3%)
Заголовок : AC3 5.1 @ 640 kbps - Dub, BD EUR
Язык : Russian
Default : Нет
Forced : Нет
Аудио #2
Идентификатор : 3
Формат : DTS
Формат/Информация : Digital Theater Systems
Режим : 16
Параметр Endianness формата : Big
Идентификатор кодека : A_DTS
Продолжительность : 1 ч. 57 м.
Вид битрейта : Постоянный
Битрейт : 1509 Кбит/сек
Каналы : 6 каналов
Расположение каналов : Front: L C R, Side: L R, LFE
Частота : 48,0 КГц
Битовая глубина : 24 бит
Метод сжатия : С потерями
Размер потока : 1,24 Гбайт (8%)
Заголовок : DTS 5.1 @ 1509 kbps - Original
Язык : English
Default : Нет
Forced : Нет
Текст #1
Идентификатор : 4
Формат : UTF-8
Идентификатор кодека : S_TEXT/UTF8
Идентификатор кодека/Информация : UTF-8 Plain Text
Заголовок : Full
Язык : Russian
Default : Нет
Forced : Нет
Текст #2
Идентификатор : 5
Формат : UTF-8
Идентификатор кодека : S_TEXT/UTF8
Идентификатор кодека/Информация : UTF-8 Plain Text
Заголовок : Forced
Язык : Russian
Default : Да
Forced : Нет
Текст #3
Идентификатор : 6
Формат : UTF-8
Идентификатор кодека : S_TEXT/UTF8
Идентификатор кодека/Информация : UTF-8 Plain Text
Заголовок : Full
Язык : English
Default : Нет
Forced : Нет
Текст #4
Идентификатор : 7
Формат : UTF-8
Идентификатор кодека : S_TEXT/UTF8
Идентификатор кодека/Информация : UTF-8 Plain Text
Заголовок : Full SDH
Язык : English
Default : Нет
Forced : Нет
Текст #5
Идентификатор : 8
Формат : UTF-8
Идентификатор кодека : S_TEXT/UTF8
Идентификатор кодека/Информация : UTF-8 Plain Text
Заголовок : Full SDH Colored
Язык : English
Default : Нет
Forced : Нет
Меню
00:00:00.000 : :Chapter 01
00:10:32.715 : :Chapter 02
00:21:16.149 : :Chapter 03
00:32:56.432 : :Chapter 04
00:42:23.624 : :Chapter 05
00:49:49.194 : :Chapter 06
00:58:11.821 : :Chapter 07
01:10:44.782 : :Chapter 08
01:19:45.405 : :Chapter 09
01:33:10.293 : :Chapter 10
01:41:25.245 : :Chapter 11
01:50:36.046 : :Chapter 12
01:57:12.567 : :Chapter 13

x264 log

x264 [info]: frame I:1821 Avg QP:12.43 size:337182
x264 [info]: frame P:42872 Avg QP:14.46 size:159530
x264 [info]: frame B:123927 Avg QP:16.33 size: 59714
x264 [info]: consecutive B-frames: 3.3% 5.0% 7.3% 49.6% 12.1% 13.9% 5.5% 2.7% 0.5% 0.3%
x264 [info]: ref P L0: 70.1% 12.3% 16.9% 0.7% 0.0%
x264 [info]: ref B L0: 93.0% 7.0%
x264 [info]: ref B L1: 94.6% 5.4%

Скриншоты

Сравнения



_________________
Показать сообщения:    

Текущее время: Сегодня 03:13

Часовой пояс: GMT



Вы не можете начинать темы
Вы не можете отвечать на сообщения
Вы не можете редактировать свои сообщения
Вы не можете удалять свои сообщения
Вы не можете голосовать в опросах
Вы не можете прикреплять файлы к сообщениям
Вы не можете скачивать файлы