Важное объявление!
У Нас Все раздачи мультитрекерные, при нуле пиров в релизах, можете смело вставать на закачку!
 
Автор Сообщение

HUNTER

Стаж:
4 года 4 месяца
Сообщений:
56842

Репутация: 101

[+] [-]
Вне форума [Профиль] [ЛС]

Смерть ей к лицу / Death Becomes Her
Страна: США
Студия: Universal
Жанр: фантастика, комедия
Год выпуска: 1992
Продолжительность: 01:43:28
Перевод: Профессиональный двухголосый закадровый, ОРТ
Перевод 2: Профессиональный многоголосый закадровый, НТВ+
Перевод 3: Профессиональный многоголосый закадровый
Перевод 4: Профессиональный двухголосый закадровый, Премьер Видео Фильм
Перевод 5: Авторский одноголосый закадровый, А.Михалёв
Cубтитры: русские и английские
Оригинальная аудиодорожка: английский
Режиссер: Роберт Земекис / Robert Zemeckis
В ролях: Мэрил Стрип (Madeline Ashton), Брюс Уиллис (Ernest Menville), Голди Хоун (Helen Sharp), Изабелла Росселлини (Lisle Von Rhuman), Иан Огилви (Chagall), Адам Сторке (Dakota), Нэнси Фиш (Rose), Алайна Рид Холл (Psychologist), Мишель Джонсон (Anna), Мэри Эллен Трейнор (Vivian Adams)
Описание: Эликсир вечной молодости! Сколько женщин мечтают о нем! О нем мечтали и бродвейская звезда Мэдлин Эштон, и Хелен Шарп, у которой эта коварная Мэдлин отбила жениха Эрнеста Мэнвилла, гениального врача-специалиста по пластическим операциям.
Прошли годы, и изрядно полинявшие и уставшие друг от друга дамочки, обращаются за чудотворным снадобьем к некоей колдунье. Итак, эликсир выпит, кожа посвежела, груди подтянулись, но скоро качество лекарства будет проверено… смертью.
Информация по сборке: Звуковые дороги и субтитры взяты с бдрип 720p, скачан с другого трекера.
Видеоряд взят с с ремукса, скачан с другого трекера.
Видео сжато в Carbon Coder в VBR в 2 прохода.
Звук пересобран с помощью Eac3To и SurCode for Dolby Digital.
Диск пересобрал с помощью DVD-lab PRO.
За инструкции спасибо Mikky72, GarfieldX.
Дорожка 3: из личной коллекции alenavova
Меню: статичное
Сэмпл: http://sendfile.su/947987
Тип релиза: DVD5 (Custom)
Контейнер: DVD-Video
Видео: NTSC 16:9 (720x480) VBR, Auto Letterboxed
Аудио: 48 kHz, AC3, 2/0 (L,R) ch, ~192.00 kbps avg Профессиональный двухголосый закадровый, ОРТ
Аудио 2: 48 kHz, AC3, 2/0 (L,R) ch, ~192.00 kbps avg Профессиональный многоголосый закадровый, НТВ+
Аудио 3: 48 kHz, AC3, 2/0 (L,R) ch, ~192.00 kbps avg Профессиональный многоголосый закадровый
Аудио 4: 48 kHz, AC3, 2/0 (L,R) ch, ~192.00 kbps avg Профессиональный двухголосый закадровый, Премьер Видео Фильм
Аудио 5: 48 kHz, AC3, 2/0 (L,R) ch, ~192.00 kbps avg Авторский одноголосый закадровый, А.Михалёв
Аудио 6: 48 kHz, AC3, 2/0 (L,R) ch, ~192.00 kbps avg английский
Формат субтитров: softsub (SRT)

MediaInfo бдрип

General
Unique ID : 181747450746139796853518552100537009502 (0x88BB4928467F24D68D20A5054ABE855E)
Complete name : D:\Death.Becomes.Her.1992.BDRip.720p.Bluray.5xRus.Eng.HDCLUB.mkv
Format : Matroska
Format version : Version 4 / Version 2
File size : 11.2 GiB
Duration : 1h 43mn
Overall bit rate : 15.4 Mbps
Encoded date : UTC 2014-02-01 09:56:18
Writing application : mkvmerge v6.7.0 ('Back to the Ground') 32bit built on Jan 11 2014 19:18:54
Writing library : libebml v1.3.0 + libmatroska v1.4.1
Video
ID : 1
Format : AVC
Format/Info : Advanced Video Codec
Format profile : High@L4.1
Format settings, CABAC : Yes
Format settings, ReFrames : 9 frames
Codec ID : V_MPEG4/ISO/AVC
Duration : 1h 43mn
Bit rate : 11.6 Mbps
Width : 1 280 pixels
Height : 692 pixels
Display aspect ratio : 1.85:1
Frame rate mode : Constant
Frame rate : 23.976 fps
Color space : YUV
Chroma subsampling : 4:2:0
Bit depth : 8 bits
Scan type : Progressive
Bits/(Pixel*Frame) : 0.549
Stream size : 8.20 GiB (73%)
Writing library : x264 core 140 r2377 1ca7bb9
Encoding settings : cabac=1 / ref=9 / deblock=1:-3:-3 / analyse=0x3:0x133 / me=umh / subme=11 / psy=1 / psy_rd=1.00:0.00 / mixed_ref=1 / me_range=24 / chroma_me=1 / trellis=2 / 8x8dct=1 / cqm=0 / deadzone=21,11 / fast_pskip=1 / chroma_qp_offset=-2 / threads=6 / lookahead_threads=1 / sliced_threads=0 / nr=0 / decimate=1 / interlaced=0 / bluray_compat=0 / constrained_intra=0 / bframes=10 / b_pyramid=2 / b_adapt=2 / b_bias=0 / direct=3 / weightb=1 / open_gop=0 / weightp=2 / keyint=240 / keyint_min=24 / scenecut=40 / intra_refresh=0 / rc_lookahead=40 / rc=2pass / mbtree=0 / bitrate=11650 / ratetol=1.0 / qcomp=0.70 / qpmin=0 / qpmax=69 / qpstep=4 / cplxblur=20.0 / qblur=0.5 / vbv_maxrate=50000 / vbv_bufsize=62500 / nal_hrd=none / filler=0 / ip_ratio=1.30 / pb_ratio=1.20 / aq=1:0.80
Language : English
Default : Yes
Forced : No
Color primaries : BT.709
Transfer characteristics : BT.709
Matrix coefficients : BT.709
Audio #1
ID : 2
Format : AC-3
Format/Info : Audio Coding 3
Mode extension : CM (complete main)
Format settings, Endianness : Big
Codec ID : A_AC3
Duration : 1h 43mn
Bit rate mode : Constant
Bit rate : 192 Kbps
Channel count : 2 channels
Channel positions : Front: L R
Sampling rate : 48.0 KHz
Bit depth : 16 bits
Compression mode : Lossy
Stream size : 142 MiB (1%)
Title : DVO - OPT
Language : Russian
Default : Yes
Forced : No
Audio #2
ID : 3
Format : AC-3
Format/Info : Audio Coding 3
Mode extension : CM (complete main)
Format settings, Endianness : Big
Codec ID : A_AC3
Duration : 1h 43mn
Bit rate mode : Constant
Bit rate : 192 Kbps
Channel count : 2 channels
Channel positions : Front: L R
Sampling rate : 48.0 KHz
Bit depth : 16 bits
Compression mode : Lossy
Stream size : 142 MiB (1%)
Title : MVO - HTB+
Language : Russian
Default : No
Forced : No
Audio #3
ID : 4
Format : AC-3
Format/Info : Audio Coding 3
Mode extension : CM (complete main)
Format settings, Endianness : Big
Codec ID : A_AC3
Duration : 1h 43mn
Bit rate mode : Constant
Bit rate : 192 Kbps
Channel count : 2 channels
Channel positions : Front: L R
Sampling rate : 48.0 KHz
Bit depth : 16 bits
Compression mode : Lossy
Stream size : 142 MiB (1%)
Title : MVO - "alenavova"
Language : Russian
Default : No
Forced : No
Audio #4
ID : 5
Format : AC-3
Format/Info : Audio Coding 3
Mode extension : CM (complete main)
Format settings, Endianness : Big
Codec ID : A_AC3
Duration : 1h 43mn
Bit rate mode : Constant
Bit rate : 192 Kbps
Channel count : 2 channels
Channel positions : Front: L R
Sampling rate : 48.0 KHz
Bit depth : 16 bits
Compression mode : Lossy
Stream size : 142 MiB (1%)
Title : DVO - Primier
Language : Russian
Default : No
Forced : No
Audio #5
ID : 6
Format : DTS
Format/Info : Digital Theater Systems
Mode : 16
Format settings, Endianness : Big
Codec ID : A_DTS
Duration : 1h 43mn
Bit rate mode : Constant
Bit rate : 1 509 Kbps
Channel count : 2 channels
Channel positions : Front: L R
Sampling rate : 48.0 KHz
Bit depth : 24 bits
Compression mode : Lossy
Stream size : 1.09 GiB (10%)
Title : AVO - А.Михалев
Language : Russian
Default : No
Forced : No
Audio #6
ID : 7
Format : DTS
Format/Info : Digital Theater Systems
Mode : 16
Format settings, Endianness : Big
Codec ID : A_DTS
Duration : 1h 43mn
Bit rate mode : Constant
Bit rate : 1 509 Kbps
Channel count : 2 channels
Channel positions : Front: L R
Sampling rate : 48.0 KHz
Bit depth : 16 bits
Compression mode : Lossy
Stream size : 1.09 GiB (10%)
Language : English
Default : No
Forced : No
Text #1
ID : 8
Format : UTF-8
Codec ID : S_TEXT/UTF8
Codec ID/Info : UTF-8 Plain Text
Language : Russian
Default : No
Forced : No
Text #2
ID : 9
Format : UTF-8
Codec ID : S_TEXT/UTF8
Codec ID/Info : UTF-8 Plain Text
Language : English
Default : No
Forced : No
Menu
00:00:00.000 : en:00:00:00.000
00:05:04.513 : en:00:05:04.513
00:09:01.541 : en:00:09:01.541
00:12:35.380 : en:00:12:35.380
00:20:40.739 : en:00:20:40.739
00:26:46.772 : en:00:26:46.772
00:30:20.110 : en:00:30:20.110
00:47:09.243 : en:00:47:09.243
00:55:55.269 : en:00:55:55.269
01:05:51.489 : en:01:05:51.489
01:09:55.858 : en:01:09:55.858
01:15:40.953 : en:01:15:40.953
01:25:01.888 : en:01:25:01.888
01:32:54.402 : en:01:32:54.402
01:36:13.226 : en:01:36:13.226
01:37:35.600 : en:01:37:35.600

BDinfo ремукса

Disc Title: Death.Becomes.Her.1992.BDRemux,HDTracker
Disc Size: 23 806 058 656 bytes
Protection: AACS
BD-Java: No
BDInfo: 0.5.8
Notes:
BDINFO HOME:
Cinema Squid
http://www.cinemasquid.com/blu-ray/tools/bdinfo
INCLUDES FORUMS REPORT FOR:
AVS Forum Blu-ray Audio and Video Specifications Thread
http://www.avsforum.com/avs-vb/showthread.php?t=1155731
WARNING: Report is incomplete because: Scan has not been run.
********************
PLAYLIST: 00000.MPLS
********************
<--- BEGIN FORUMS PASTE --->
Код:
Total   Video
Title                                                           Codec   Length  Movie Size      Disc Size       Bitrate Bitrate Main Audio Track                          Secondary Audio Track
-----                                                           ------  ------- --------------  --------------  ------- ------- ------------------                        ---------------------
00000.MPLS                                                      AVC     1:43:28 0               23 806 058 656  0,00    0,00    DD AC3 2.0 192Kbps                        DTS-HD Master 2.0 (48kHz/16-bit)
Код:
DISC INFO:
Disc Title:     Death.Becomes.Her.1992.BDRemux,HDTracker
Disc Size:      23 806 058 656 bytes
Protection:     AACS
BD-Java:        No
BDInfo:         0.5.8
PLAYLIST REPORT:
Name:                   00000.MPLS
Length:                 1:43:28.202 (h:m:s.ms)
Size:                   0 bytes
Total Bitrate:          0,00 Mbps
VIDEO:
Codec                   Bitrate             Description
-----                   -------             -----------
MPEG-4 AVC Video        0 kbps              1080p / 23,976 fps / 16:9 / High Profile 4.1
AUDIO:
Codec                           Language        Bitrate         Description
-----                           --------        -------         -----------
Dolby Digital Audio             Russian         192 kbps        2.0 / 48 kHz / 192 kbps / DN -4dB
Dolby Digital Audio             Russian         192 kbps        2.0 / 48 kHz / 192 kbps / DN -4dB
Dolby Digital Audio             Russian         192 kbps        2.0 / 48 kHz / 192 kbps / DN -4dB
DTS-HD Master Audio             Russian         0 kbps          2.0 / 48 kHz / 16-bit (DTS Core: 2.0 / 48 kHz / 1509 kbps / 16-bit)
DTS-HD Master Audio             English         0 kbps          2.0 / 48 kHz / 16-bit (DTS Core: 2.0 / 48 kHz / 1509 kbps / 16-bit)
SUBTITLES:
Codec                           Language        Bitrate         Description
-----                           --------        -------         -----------
Presentation Graphics           Russian         0,000 kbps
Presentation Graphics           English         0,000 kbps
FILES:
Name            Time In         Length          Size            Total Bitrate
----            -------         ------          ----            -------------
00000.M2TS      0:00:00.000     1:43:28.202     0               0
CHAPTERS:
Number          Time In         Length          Avg Video Rate  Max 1-Sec Rate  Max 1-Sec Time  Max 5-Sec Rate  Max 5-Sec Time  Max 10Sec Rate  Max 10Sec Time  Avg Frame Size  Max Frame Size  Max Frame Time
------          -------         ------          --------------  --------------  --------------  --------------  --------------  --------------  --------------  --------------  --------------  --------------
1               0:00:00.000     0:05:04.511     0 kbps          0 kbps          00:00:00.000    0 kbps          00:00:00.000    0 kbps          00:00:00.000    0 bytes         0 bytes         00:00:00.000
2               0:05:04.511     0:03:57.029     0 kbps          0 kbps          00:00:00.000    0 kbps          00:00:00.000    0 kbps          00:00:00.000    0 bytes         0 bytes         00:00:00.000
3               0:09:01.540     0:03:33.837     0 kbps          0 kbps          00:00:00.000    0 kbps          00:00:00.000    0 kbps          00:00:00.000    0 bytes         0 bytes         00:00:00.000
4               0:12:35.378     0:08:05.360     0 kbps          0 kbps          00:00:00.000    0 kbps          00:00:00.000    0 kbps          00:00:00.000    0 bytes         0 bytes         00:00:00.000
5               0:20:40.739     0:06:06.032     0 kbps          0 kbps          00:00:00.000    0 kbps          00:00:00.000    0 kbps          00:00:00.000    0 bytes         0 bytes         00:00:00.000
6               0:26:46.771     0:03:33.337     0 kbps          0 kbps          00:00:00.000    0 kbps          00:00:00.000    0 kbps          00:00:00.000    0 bytes         0 bytes         00:00:00.000
7               0:30:20.109     0:16:49.134     0 kbps          0 kbps          00:00:00.000    0 kbps          00:00:00.000    0 kbps          00:00:00.000    0 bytes         0 bytes         00:00:00.000
8               0:47:09.243     0:08:46.025     0 kbps          0 kbps          00:00:00.000    0 kbps          00:00:00.000    0 kbps          00:00:00.000    0 bytes         0 bytes         00:00:00.000
9               0:55:55.268     0:09:56.220     0 kbps          0 kbps          00:00:00.000    0 kbps          00:00:00.000    0 kbps          00:00:00.000    0 bytes         0 bytes         00:00:00.000
10              1:05:51.488     0:04:04.369     0 kbps          0 kbps          00:00:00.000    0 kbps          00:00:00.000    0 kbps          00:00:00.000    0 bytes         0 bytes         00:00:00.000
11              1:09:55.858     0:05:45.095     0 kbps          0 kbps          00:00:00.000    0 kbps          00:00:00.000    0 kbps          00:00:00.000    0 bytes         0 bytes         00:00:00.000
12              1:15:40.953     0:09:20.934     0 kbps          0 kbps          00:00:00.000    0 kbps          00:00:00.000    0 kbps          00:00:00.000    0 bytes         0 bytes         00:00:00.000
13              1:25:01.888     0:07:52.514     0 kbps          0 kbps          00:00:00.000    0 kbps          00:00:00.000    0 kbps          00:00:00.000    0 bytes         0 bytes         00:00:00.000
14              1:32:54.402     0:03:18.823     0 kbps          0 kbps          00:00:00.000    0 kbps          00:00:00.000    0 kbps          00:00:00.000    0 bytes         0 bytes         00:00:00.000
15              1:36:13.225     0:01:22.373     0 kbps          0 kbps          00:00:00.000    0 kbps          00:00:00.000    0 kbps          00:00:00.000    0 bytes         0 bytes         00:00:00.000
16              1:37:35.599     0:05:52.603     0 kbps          0 kbps          00:00:00.000    0 kbps          00:00:00.000    0 kbps          00:00:00.000    0 bytes         0 bytes         00:00:00.000
STREAM DIAGNOSTICS:
File            PID             Type            Codec           Language                Seconds                 Bitrate                 Bytes           Packets
----            ---             ----            -----           --------                --------------          --------------          -------------   -----
00000.M2TS      4113 (0x1011)   0x1B            AVC                                     0                       0                       0               0
00000.M2TS      4352 (0x1100)   0x81            AC3             rus (Russian)           0                       0                       0               0
00000.M2TS      4353 (0x1101)   0x81            AC3             rus (Russian)           0                       0                       0               0
00000.M2TS      4354 (0x1102)   0x81            AC3             rus (Russian)           0                       0                       0               0
00000.M2TS      4355 (0x1103)   0x86            DTS-HD MA       rus (Russian)           0                       0                       0               0
00000.M2TS      4356 (0x1104)   0x86            DTS-HD MA       eng (English)           0                       0                       0               0
00000.M2TS      4608 (0x1200)   0x90            PGS             rus (Russian)           0                       0                       0               0
00000.M2TS      4609 (0x1201)   0x90            PGS             eng (English)           0                       0                       0               0
<---- END FORUMS PASTE ---->
QUICK SUMMARY:
Disc Title: Death.Becomes.Her.1992.BDRemux,HDTracker
Disc Size: 23 806 058 656 bytes
Protection: AACS
BD-Java: No
Playlist: 00000.MPLS
Size: 0 bytes
Length: 1:43:28.202
Total Bitrate: 0,00 Mbps
Video: MPEG-4 AVC Video / 0 kbps / 1080p / 23,976 fps / 16:9 / High Profile 4.1
Audio: Russian / Dolby Digital Audio / 2.0 / 48 kHz / 192 kbps / DN -4dB
Audio: Russian / Dolby Digital Audio / 2.0 / 48 kHz / 192 kbps / DN -4dB
Audio: Russian / Dolby Digital Audio / 2.0 / 48 kHz / 192 kbps / DN -4dB
Audio: Russian / DTS-HD Master Audio / 2.0 / 48 kHz / 16-bit (DTS Core: 2.0 / 48 kHz / 1509 kbps / 16-bit)
Audio: English / DTS-HD Master Audio / 2.0 / 48 kHz / 16-bit (DTS Core: 2.0 / 48 kHz / 1509 kbps / 16-bit)
Subtitle: Russian / 0,000 kbps
Subtitle: English / 0,000 kbps

DVDinfo

Title: Smert ej k licu BDDVD5
Size: 4.37 Gb ( 4 577 996,00 KBytes ) - DVD-5
Enabled regions: 1, 2, 3, 4, 5, 6, 7, 8
VTS_01 :
Play Length: 01:43:22
Video: NTSC 16:9 (720x480) VBR, Auto Letterboxed
Audio:
Russian (Dolby AC3, 2 ch)
Russian (Dolby AC3, 2 ch)
Russian (Dolby AC3, 2 ch)
Russian (Dolby AC3, 2 ch)
Russian (Dolby AC3, 2 ch)
English (Dolby AC3, 2 ch)
Subtitles:
Russian
English

Mediainfo первого воба

General
Complete name : D:\Video\Smert ej k licu BDDVD5\VIDEO_TS\VTS_01_1.VOB
Format : MPEG-PS
File size : 1 000 MiB
Duration : 23mn 13s
Overall bit rate mode : Variable
Overall bit rate : 6 021 Kbps
Video
ID : 224 (0xE0)
Format : MPEG Video
Format version : Version 2
Format profile : Main@Main
Format settings, BVOP : Yes
Format settings, Matrix : Custom
Format settings, GOP : Variable
Duration : 23mn 13s
Bit rate mode : Variable
Bit rate : 4 749 Kbps
Maximum bit rate : 8 640 Kbps
Width : 720 pixels
Height : 480 pixels
Display aspect ratio : 16:9
Frame rate : 23.976 fps
Standard : NTSC
Color space : YUV
Chroma subsampling : 4:2:0
Bit depth : 8 bits
Scan type : Progressive
Scan order : 2:3 Pulldown
Compression mode : Lossy
Bits/(Pixel*Frame) : 0.573
Time code of first frame : 00:00:00:00
Time code source : Group of pictures header
Stream size : 789 MiB (79%)
Audio #1
ID : 189 (0xBD)-128 (0x80)
Format : AC-3
Format/Info : Audio Coding 3
Mode extension : CM (complete main)
Format settings, Endianness : Big
Muxing mode : DVD-Video
Duration : 23mn 13s
Bit rate mode : Constant
Bit rate : 192 Kbps
Channel count : 2 channels
Channel positions : Front: L R
Sampling rate : 48.0 KHz
Bit depth : 16 bits
Compression mode : Lossy
Stream size : 31.9 MiB (3%)
Audio #2
ID : 189 (0xBD)-129 (0x81)
Format : AC-3
Format/Info : Audio Coding 3
Mode extension : CM (complete main)
Format settings, Endianness : Big
Muxing mode : DVD-Video
Duration : 23mn 13s
Bit rate mode : Constant
Bit rate : 192 Kbps
Channel count : 2 channels
Channel positions : Front: L R
Sampling rate : 48.0 KHz
Bit depth : 16 bits
Compression mode : Lossy
Stream size : 31.9 MiB (3%)
Audio #3
ID : 189 (0xBD)-130 (0x82)
Format : AC-3
Format/Info : Audio Coding 3
Mode extension : CM (complete main)
Format settings, Endianness : Big
Muxing mode : DVD-Video
Duration : 23mn 13s
Bit rate mode : Constant
Bit rate : 192 Kbps
Channel count : 2 channels
Channel positions : Front: L R
Sampling rate : 48.0 KHz
Bit depth : 16 bits
Compression mode : Lossy
Stream size : 31.9 MiB (3%)
Audio #4
ID : 189 (0xBD)-131 (0x83)
Format : AC-3
Format/Info : Audio Coding 3
Mode extension : CM (complete main)
Format settings, Endianness : Big
Muxing mode : DVD-Video
Duration : 23mn 13s
Bit rate mode : Constant
Bit rate : 192 Kbps
Channel count : 2 channels
Channel positions : Front: L R
Sampling rate : 48.0 KHz
Bit depth : 16 bits
Compression mode : Lossy
Stream size : 31.9 MiB (3%)
Audio #5
ID : 189 (0xBD)-132 (0x84)
Format : AC-3
Format/Info : Audio Coding 3
Mode extension : CM (complete main)
Format settings, Endianness : Big
Muxing mode : DVD-Video
Duration : 23mn 13s
Bit rate mode : Constant
Bit rate : 192 Kbps
Channel count : 2 channels
Channel positions : Front: L R
Sampling rate : 48.0 KHz
Bit depth : 16 bits
Compression mode : Lossy
Stream size : 31.9 MiB (3%)
Audio #6
ID : 189 (0xBD)-133 (0x85)
Format : AC-3
Format/Info : Audio Coding 3
Mode extension : CM (complete main)
Format settings, Endianness : Big
Muxing mode : DVD-Video
Duration : 23mn 13s
Bit rate mode : Constant
Bit rate : 192 Kbps
Channel count : 2 channels
Channel positions : Front: L R
Sampling rate : 48.0 KHz
Bit depth : 16 bits
Compression mode : Lossy
Stream size : 31.9 MiB (3%)
Text #1
ID : 189 (0xBD)-32 (0x20)
Format : RLE
Format/Info : Run-length encoding
Muxing mode : DVD-Video
Text #2
ID : 189 (0xBD)-33 (0x21)
Format : RLE
Format/Info : Run-length encoding
Muxing mode : DVD-Video
Menu

Настройки и конечный проект

Скрипт

LoadPlugin("C:\Program Files (x86)\FFMpegSource2\ffms2.dll")
FFVideoSource("D:\Smert ej k licu BDDVD5\00000.track_4113.mkv")
#Coloryuv(analyze=true)
LoadPlugin("C:\Program Files (x86)\AutoYUY2\AutoYUY2.dll")
AutoYUY2()
LoadPlugin("C:\Program Files (x86)\ColorMatrix\ColorMatrix.dll")
ColorMatrix(mode="Rec.709->Rec.601", inputFR=false, clamp=0)
#ColorMatrix(mode="Rec.709->Rec.601", inputFR=true, clamp=0)
BicubicResize(720, 480, 0, 0.5)
AssumeFPS ("ntsc_film")

Софт

TS Muxer 2.6.12- разборка BD-Remux
MKVExtractGUI 2.2.2.9 - разборка BDRip
mkvmerge GUI v6.6.0 - сборка мкв
Eac3To - распаковка DTS на wav
SurCode for Dolby Digital - сборка звуковых дорожек ac3
FFMpegSource2, AviSynth, Carbon Coder - Обработка и кодирование видеодорожки
Adobe Photoshop CS6 - редактирование меню
DVD-lab PRO 2 - сборка DVD

Меню

Фильм


_________________
Показать сообщения:    

Текущее время: Сегодня 18:43

Часовой пояс: GMT



Вы не можете начинать темы
Вы не можете отвечать на сообщения
Вы не можете редактировать свои сообщения
Вы не можете удалять свои сообщения
Вы не можете голосовать в опросах
Вы не можете прикреплять файлы к сообщениям
Вы не можете скачивать файлы
Наши партнеры: интернет магазин Ивановского трикотажа textilla.ru