Важное объявление!
У Нас Все раздачи мультитрекерные, при нуле пиров в релизах, можете смело вставать на закачку!
 
Автор Сообщение

HUNTER

Стаж:
4 года 4 месяца
Сообщений:
56734

Репутация: 101

[+] [-]
Вне форума [Профиль] [ЛС]

Смерть ей к лицуDeath Becomes Her
-
Страна: США
Жанр: комедия, фантастика
Год выпуска: 1992
Продолжительность: 01:43:28
-
Перевод 1: Профессиональный (многоголосый закадровый) Neoclassica
Перевод 2: Профессиональный (многоголосый закадровый) НТВ+
Перевод 3: Профессиональный (многоголосый закадровый) FDV
Перевод 4: Профессиональный (многоголосый закадровый) Премьер Видео Фильм
Перевод 5: Профессиональный (двухголосый закадровый) ОРТ/СТС
Перевод 6: Авторский (одноголосый закадровый) Алексей Михалев
Перевод 7: Профессиональный (многоголосый закадровый) ТРК Украина
Перевод 8: Профессиональный (двухголосый закадровый) Новий канал
Cубтитры: русские (2 вида), английские [Full, SDH]
Оригинальная аудиодорожка: английский
-
Режиссер: Роберт Земекис / Robert Zemeckis
В ролях: Мэрил Стрип, Брюс Уиллис, Голди Хоун, Изабелла Росселлини, Иан Огилви, Адам Сторке, Нэнси Фиш, Алайна Рид Холл, Мишель Джонсон, Мэри Эллен Трейнор
-
Описание: Хелен Шарп готовится к тому, чтобы стать женой известного пластического хирурга Эрнеста Менвила. Но перед тем она решает познакомить своего будущего мужа с подругой детства - кинозвездой и давней соперницей. Мадлен, привыкшая получать все, чего захочет, отбивает жениха у подруги. Это предательство становится последней каплей: Хелен попадает в психбольницу в состоянии нервного срыва.
И вот, спустя несколько лет, когда Мадлен растеряла былую популярность и заметно постарела, на горизонте снова появляется Хелен, цветущая и стройная. Время словно не властно над ней: она выглядит все так же прекрасно, как и в тот день, когда они последний раз встречались...
[img]https://rating.kinopoisk.ru/1889.gif[/img]
Тип релиза: BDRip 1080p NCmt
Контейнер: MKV
Видео: H.264 / NTSC 16:9 / 1920x1040 (1,85:1) / 19158 kbps / 23,976 fps / 0.400 bit/pixel / High@L4.1
Аудио 1: Russian / Dolby Digital Audio / 2.0 Ch / 48 kHz / 192 kbps / 16 bit | MVO | Neoclassica
Аудио 2: Russian / Dolby Digital Audio / 2.0 Ch / 48 kHz / 192 kbps / 16 bit | MVO | НТВ+
Аудио 3: Russian / Dolby Digital Audio / 2.0 Ch / 48 kHz / 192 kbps / 16 bit | MVO | FDV
Аудио 4: Russian / Dolby Digital Audio / 2.0 Ch / 48 kHz / 192 kbps / 16 bit | MVO | Премьер Видео Фильм
Аудио 5: Russian / Dolby Digital Audio / 2.0 Ch / 48 kHz / 256 kbps / 16 bit | DVO | ОРТ/СТС
Аудио 6: Russian / Digital Theater Systems / 2.0 Ch / 48 kHz / 1509 kbps / 24 bit | AVO | Алексей Михалев
Аудио 7: Ukrainian / Dolby Digital Audio / 2.0 Ch / 48 kHz / 192 kbps / 16 bit | MVO | ТРК Украина
Аудио 8: Ukrainian / Dolby Digital Audio / 2.0 Ch / 48 kHz / 192 kbps / 16 bit | DVO | Новий канал
Аудио 9: English / Digital Theater Systems / 5.1 Ch / 48 kHz / 1509 kbps / 24 bit | Original
Формат субтитров: softsub (SRT)
Навигация по главам: есть

x264 log

Код:
x264 [info]: frame I:936 Avg QP:17.04 size:193819
x264 [info]: frame P:27952 Avg QP:18.14 size:121161
x264 [info]: frame B:119810 Avg QP:19.03 size: 94184
x264 [info]: consecutive B-frames: 1.2% 0.8% 3.7% 9.8% 12.2% 62.9% 5.2% 1.5% 1.4% 1.2%

Примечание по Source

Death Becomes Her 1992 1080p Blu-ray AVC DTS-HD MA 5.1 Karloff
Код:
QUICK SUMMARY:
Disc Title: Death_Becomes_Her
Disc Size: 42,398,054,400 bytes
Protection: AACS(v58)
BD-Java: Yes
Playlist: 01002.MPLS
Size: 33,382,907,904 bytes
Length: 1:43:21.945
Total Bitrate: 43.06 Mbps
Video: MPEG-4 AVC Video / 35000 kbps / 1080p / 23.976 fps / 16:9 / High Profile 4.1
Audio: English / DTS-HD Master Audio / 5.1 / 48 kHz / 3591 kbps / 24-bit (DTS Core: 5.1 / 48 kHz / 1509 kbps / 24-bit)
Audio: English / DTS-HD Master Audio / 2.0 / 48 kHz / 2094 kbps / 24-bit (DTS Core: 2.0 / 48 kHz / 1509 kbps / 24-bit)
Subtitle: English / 33.609 kbps
Все русские дорожки отсюда с трекера, на [url=viewtopic.php?t=2106664]DVD[/url] якобы шестиканалка с Михалевым, на самом деле там дутая оригинальная дорога (речь во всех каналах). К тому же, LFE-канал отсутствует, спектр срезан на 384 kbps (19 kHz), поэтому ограничился DTS с HDClub'а. (eac3to в логе пишет, что "на самом деле дорога 16 bit")

MediaInfo

Код:
Общее
Уникальный идентификатор                 : 241354215754027144096542087422798777172 (0xB5932191E5E7C67891E9E6629BA0CB54)
Полное имя                               : N:\BDRip 1080p\Death Becomes Her.1992.BDRip.1080p.mkv
Формат                                   : Matroska
Версия формата                           : Version 4 / Version 2
Размер файла                             : 17,0 Гбайт
Продолжительность                        : 1 ч. 43 м.
Общий поток                              : 23,6 Мбит/сек
Название фильма                          : Release for RuTracker © flaSI-I
Дата кодирования                         : UTC 2016-09-10 08:42:10
Программа кодирования                    : mkvmerge v9.4.0 ('Knurl') 64bit
Библиотека кодирования                   : libebml v1.3.4 + libmatroska v1.4.5
Видео
Идентификатор                            : 1
Формат                                   : AVC
Формат/Информация                        : Advanced Video Codec
Профиль формата                          : High@L4.1
Параметр CABAC формата                   : Да
Параметр ReFrames формата                : 4 кадра
Идентификатор кодека                     : V_MPEG4/ISO/AVC
Продолжительность                        : 1 ч. 43 м.
Битрейт                                  : 19,2 Мбит/сек
Ширина                                   : 1920 пикселей
Высота                                   : 1040 пикселей
Соотношение сторон                       : 1,85:1
Режим частоты кадров                     : Постоянный
Частота кадров                           : 23,976 (24000/1001) кадра/сек
Цветовое пространство                    : YUV
Субдискретизация насыщенности            : 4:2:0
Битовая глубина                          : 8 бит
Тип развёртки                            : Прогрессивная
Бит/(Пиксели*Кадры)                      : 0.400
Размер потока                            : 13,8 Гбайт (81%)
Библиотека кодирования                   : x264 core 148 r2692kMod 64f4e24
Настройки программы                      : cabac=1 / ref=4 / deblock=1:-3:-3 / analyse=0x3:0x133 / me=umh / subme=11 / psy=1 / fade_compensate=0.00 / psy_rd=1.06:0.00 / mixed_ref=1 / me_range=32 / chroma_me=1 / trellis=2 / 8x8dct=1 / cqm=0 / deadzone=21,11 / fast_pskip=0 / chroma_qp_offset=-2 / threads=24 / lookahead_threads=4 / sliced_threads=0 / nr=0 / decimate=1 / interlaced=0 / bluray_compat=0 / constrained_intra=0 / fgo=0 / bframes=9 / b_pyramid=2 / b_adapt=2 / b_bias=0 / direct=3 / weightb=1 / open_gop=0 / weightp=2 / keyint=240 / keyint_min=23 / scenecut=40 / intra_refresh=0 / rc_lookahead=100 / rc=crf / mbtree=0 / crf=18.1000 / qcomp=0.65 / qpmin=0 / qpmax=51 / qpstep=4 / vbv_maxrate=40000 / vbv_bufsize=35000 / crf_max=0.0 / nal_hrd=none / filler=0 / ip_ratio=1.20 / pb_ratio=1.10 / aq=3:0.65
Язык                                     : English
Default                                  : Да
Forced                                   : Нет
Аудио #1
Идентификатор                            : 2
Формат                                   : AC-3
Формат/Информация                        : Audio Coding 3
Расширение режима                        : CM (complete main)
Параметр Endianness формата              : Big
Идентификатор кодека                     : A_AC3
Продолжительность                        : 1 ч. 43 м.
Вид битрейта                             : Постоянный
Битрейт                                  : 192 Кбит/сек
Каналы                                   : 2 канала
Расположение каналов                     : Front: L R
Частота                                  : 48,0 КГц
Частота кадров                           : 31,250 кадров/сек (1536 spf)
Метод сжатия                             : С потерями
Размер потока                            : 142 Мбайт (1%)
Заголовок                                : MVO | Neoclassica
Язык                                     : Russian
Default                                  : Да
Forced                                   : Нет
Аудио #2
Идентификатор                            : 3
Формат                                   : AC-3
Формат/Информация                        : Audio Coding 3
Расширение режима                        : CM (complete main)
Параметр Endianness формата              : Big
Идентификатор кодека                     : A_AC3
Продолжительность                        : 1 ч. 43 м.
Вид битрейта                             : Постоянный
Битрейт                                  : 192 Кбит/сек
Каналы                                   : 2 канала
Расположение каналов                     : Front: L R
Частота                                  : 48,0 КГц
Частота кадров                           : 31,250 кадров/сек (1536 spf)
Метод сжатия                             : С потерями
Размер потока                            : 142 Мбайт (1%)
Заголовок                                : MVO | НТВ+
Язык                                     : Russian
Default                                  : Нет
Forced                                   : Нет
Аудио #3
Идентификатор                            : 4
Формат                                   : AC-3
Формат/Информация                        : Audio Coding 3
Расширение режима                        : CM (complete main)
Параметр Endianness формата              : Big
Идентификатор кодека                     : A_AC3
Продолжительность                        : 1 ч. 43 м.
Вид битрейта                             : Постоянный
Битрейт                                  : 192 Кбит/сек
Каналы                                   : 2 канала
Расположение каналов                     : Front: L R
Частота                                  : 48,0 КГц
Частота кадров                           : 31,250 кадров/сек (1536 spf)
Метод сжатия                             : С потерями
Размер потока                            : 142 Мбайт (1%)
Заголовок                                : MVO | FDV
Язык                                     : Russian
Default                                  : Нет
Forced                                   : Нет
Аудио #4
Идентификатор                            : 5
Формат                                   : AC-3
Формат/Информация                        : Audio Coding 3
Расширение режима                        : CM (complete main)
Параметр Endianness формата              : Big
Идентификатор кодека                     : A_AC3
Продолжительность                        : 1 ч. 43 м.
Вид битрейта                             : Постоянный
Битрейт                                  : 192 Кбит/сек
Каналы                                   : 2 канала
Расположение каналов                     : Front: L R
Частота                                  : 48,0 КГц
Частота кадров                           : 31,250 кадров/сек (1536 spf)
Метод сжатия                             : С потерями
Размер потока                            : 142 Мбайт (1%)
Заголовок                                : MVO | Премьер Видео Фильм
Язык                                     : Russian
Default                                  : Нет
Forced                                   : Нет
Аудио #5
Идентификатор                            : 6
Формат                                   : AC-3
Формат/Информация                        : Audio Coding 3
Расширение режима                        : CM (complete main)
Параметр Endianness формата              : Big
Идентификатор кодека                     : A_AC3
Продолжительность                        : 1 ч. 43 м.
Вид битрейта                             : Постоянный
Битрейт                                  : 256 Кбит/сек
Каналы                                   : 2 канала
Расположение каналов                     : Front: L R
Частота                                  : 48,0 КГц
Частота кадров                           : 31,250 кадров/сек (1536 spf)
Метод сжатия                             : С потерями
Размер потока                            : 189 Мбайт (1%)
Заголовок                                : DVO | ОРТ/СТС
Язык                                     : Russian
Default                                  : Нет
Forced                                   : Нет
Аудио #6
Идентификатор                            : 7
Формат                                   : DTS
Формат/Информация                        : Digital Theater Systems
Режим                                    : 16
Параметр Endianness формата              : Big
Идентификатор кодека                     : A_DTS
Продолжительность                        : 1 ч. 43 м.
Вид битрейта                             : Постоянный
Битрейт                                  : 1509 Кбит/сек
Каналы                                   : 2 канала
Расположение каналов                     : Front: L R
Частота                                  : 48,0 КГц
Частота кадров                           : 93,750 кадра/сек (512 spf)
Битовая глубина                          : 24 бит
Метод сжатия                             : С потерями
Размер потока                            : 1,09 Гбайт (6%)
Заголовок                                : AVO | Алексей Михалев
Язык                                     : Russian
Default                                  : Нет
Forced                                   : Нет
Аудио #7
Идентификатор                            : 8
Формат                                   : AC-3
Формат/Информация                        : Audio Coding 3
Расширение режима                        : CM (complete main)
Параметр Endianness формата              : Big
Идентификатор кодека                     : A_AC3
Продолжительность                        : 1 ч. 43 м.
Вид битрейта                             : Постоянный
Битрейт                                  : 192 Кбит/сек
Каналы                                   : 2 канала
Расположение каналов                     : Front: L R
Частота                                  : 48,0 КГц
Частота кадров                           : 31,250 кадров/сек (1536 spf)
Метод сжатия                             : С потерями
Размер потока                            : 142 Мбайт (1%)
Заголовок                                : MVO | ТРК Украина
Язык                                     : Ukrainian
Default                                  : Нет
Forced                                   : Нет
Аудио #8
Идентификатор                            : 9
Формат                                   : AC-3
Формат/Информация                        : Audio Coding 3
Расширение режима                        : CM (complete main)
Параметр Endianness формата              : Big
Идентификатор кодека                     : A_AC3
Продолжительность                        : 1 ч. 43 м.
Вид битрейта                             : Постоянный
Битрейт                                  : 192 Кбит/сек
Каналы                                   : 2 канала
Расположение каналов                     : Front: L R
Частота                                  : 48,0 КГц
Частота кадров                           : 31,250 кадров/сек (1536 spf)
Метод сжатия                             : С потерями
Размер потока                            : 142 Мбайт (1%)
Заголовок                                : DVO | Новiй канал
Язык                                     : Ukrainian
Default                                  : Нет
Forced                                   : Нет
Аудио #9
Идентификатор                            : 10
Формат                                   : DTS
Формат/Информация                        : Digital Theater Systems
Режим                                    : 16
Параметр Endianness формата              : Big
Идентификатор кодека                     : A_DTS
Продолжительность                        : 1 ч. 43 м.
Вид битрейта                             : Постоянный
Битрейт                                  : 1509 Кбит/сек
Каналы                                   : 6 каналов
Расположение каналов                     : Front: L C R, Side: L R, LFE
Частота                                  : 48,0 КГц
Частота кадров                           : 93,750 кадра/сек (512 spf)
Битовая глубина                          : 24 бит
Метод сжатия                             : С потерями
Размер потока                            : 1,09 Гбайт (6%)
Заголовок                                : Original
Язык                                     : English
Default                                  : Нет
Forced                                   : Нет
Текст #1
Идентификатор                            : 11
Формат                                   : UTF-8
Идентификатор кодека                     : S_TEXT/UTF8
Идентификатор кодека/Информация          : UTF-8 Plain Text
Продолжительность                        : 1 ч. 37 м.
Битрейт                                  : 99 бит/сек
Count of elements                        : 1178
Размер потока                            : 71,0 Кбайт (0%)
Заголовок                                : DVD#1
Язык                                     : Russian
Default                                  : Нет
Forced                                   : Нет
Текст #2
Идентификатор                            : 12
Формат                                   : UTF-8
Идентификатор кодека                     : S_TEXT/UTF8
Идентификатор кодека/Информация          : UTF-8 Plain Text
Продолжительность                        : 1 ч. 36 м.
Битрейт                                  : 89 бит/сек
Count of elements                        : 1036
Размер потока                            : 63,2 Кбайт (0%)
Заголовок                                : DVD#2
Язык                                     : Russian
Default                                  : Нет
Forced                                   : Нет
Текст #3
Идентификатор                            : 13
Формат                                   : UTF-8
Идентификатор кодека                     : S_TEXT/UTF8
Идентификатор кодека/Информация          : UTF-8 Plain Text
Продолжительность                        : 1 ч. 36 м.
Битрейт                                  : 55 бит/сек
Count of elements                        : 1119
Размер потока                            : 39,0 Кбайт (0%)
Заголовок                                : FULL | BD
Язык                                     : English
Default                                  : Нет
Forced                                   : Нет
Текст #4
Идентификатор                            : 14
Формат                                   : UTF-8
Идентификатор кодека                     : S_TEXT/UTF8
Идентификатор кодека/Информация          : UTF-8 Plain Text
Продолжительность                        : 1 ч. 36 м.
Битрейт                                  : 57 бит/сек
Count of elements                        : 1202
Размер потока                            : 40,7 Кбайт (0%)
Заголовок                                : SDH | BD
Язык                                     : English
Default                                  : Нет
Forced                                   : Нет
Меню
00:00:00.000                             : en:Main Titles: Broadway 1978
00:05:04.513                             : en:Mad and Hel
00:09:01.541                             : en:7 Years Later
00:12:35.380                             : en:Another 7 Years Later
00:20:40.739                             : en:Helen's Party
00:26:46.772                             : en:Secret Plots and Second Thoughts
00:30:20.110                             : en:Lisle
00:47:09.243                             : en:The Fall and Rise of Madeline Ashton
00:55:55.269                             : en:A Medical Miracle
01:05:51.489                             : en:Helen Has a Blast
01:09:55.858                             : en:Gut Reactions
01:15:40.953                             : en:Touch-Ups
01:25:01.888                             : en:The Party
01:32:54.402                             : en:37 Years Later
01:36:13.226                             : en:Going to Pieces
01:37:35.600                             : en:End Titles

Encode vs. Source

Encode --> Source







_________________
Показать сообщения:    

Текущее время: Сегодня 18:18

Часовой пояс: GMT



Вы не можете начинать темы
Вы не можете отвечать на сообщения
Вы не можете редактировать свои сообщения
Вы не можете удалять свои сообщения
Вы не можете голосовать в опросах
Вы не можете прикреплять файлы к сообщениям
Вы не можете скачивать файлы