Важное объявление!
У Нас Все раздачи мультитрекерные, при нуле пиров в релизах, можете смело вставать на закачку!
 
Автор Сообщение

HUNTER

Стаж:
4 года 4 месяца
Сообщений:
56798

Репутация: 101

[+] [-]
Вне форума [Профиль] [ЛС]

Смертельный уик-энд / Дом у озера / Death Weekend / The House by the Lake / Fin de semaine infernale
Страна: Канада
Студия: Famous Players / Quadrant Films
Жанр: триллер, драма
Год выпуска: 1976
Продолжительность: 01:28:27
Перевод: Авторский одноголосый (Дольский)
Cубтитры: русские Северный
Оригинальная аудиодорожка: английский
Режиссер: Уильям Фрюит / William Fruet
В ролях: Бренда Баккаро, Дон Страуд, Чак Шамата, Ричард Эйрес
Описание: Богатый дантист-плейбой приглашает на свою загородную виллу, находящуюся поблизости живописных озёр Канады, хорошенькую модель по имени Дайан, дабы развести её на сами знаете что. По дороге, когда они ехали на машине, им попались четверо отморозков на авто, которые ради хохмы решили устроить гонку в кошки-мышки. В результате погони негодяи попали в кювет, что заставило их затаить на преследуемых ненависть. Те же, оторвавшись, поменяли на заправке машину и благополучно добрались до места назначения. Четверо товарищей же, выбравшись на дорогу, отправились на поиски обидчиков, в результате чего нашли их и забрались в дом, где принялись терроризировать дантиста и Дайан…
Эксплуатационный фильм в духе Дома на краю парка. Хочу отметить, что режиссёр Уильям Фрюит (Похоронное бюро, Голубая обезьяна, Убийственная вечеринка) замечательно справился с поставленной задачей, поскольку в его творении есть и обязательная завязка, стремительное развитие событий, жестокость, напряжение, вменяемое поведение героев и женская обнажёнка, включающая в себя элементы, характерные изнасилованию. Картина смотрится на одном дыхании, но есть всё же три замечания. Во-первых, я не испытывал совершенно никакой жалости и сострадания к жертвам, поскольку показаны они были не с лучшей стороны. Дантист заметно бесил своими несусветными владениями, заработанными на нетрудовые доходы, в комнатах для гостей и душе имел зеркала-стёкла, чтобы подглядывать, да и сам выглядел размазнёй. Его гостья была немногим лучше. Она заведомо знала, куда едет, и уж точно понимала, что этот “чаёк” закончится в постели. Однако же при этом строила из себя саму невинность, говоря, что она, видите ли, никогда не позировала обнажённой и что не спала с работодателями. Чего уж там говорить, модельный бизнес - это всего лишь положительно воспринимаемая обществом разновидность проституции. Во-вторых, главная героиня совершенно немотивированно превращается в Рембо, сходу придумывающего хитроумные капканы для своих насильников. Ох уж мне все эти фильмы про крутых тёлок, которыми сейчас особенно забито наше отечественное телевидение. И, в-третьих, самые последние кадры вызывают некоторое недоумение. Это что, жалость?
Доп. информация: За синхронизацию огромное спасибо *Sergeant_am*
При пересборе двд были использованы программы:
BeSweet в связке с BeLight – распаковка звука в формат WAV
Sony Vegas – кодирование в AC3
PgcDemux - разделение компонентов диска на файлы
Muxman - мультиплексирование и авторинг DVD
VobBlanker - реавторинг DVD

Сони вегас

Скрин завершения проекта

Бонусы: Трейлеры.
Сэмпл: http://sendfile.su/1207751
Тип релиза: DVD5 (Custom)
Контейнер: DVD-Video
Видео: NTSC 4:3 (720x480) VBR
Аудио: Russian (Dolby AC3, 192 Кбит/сек, 2 ch)
Аудио 2: English (Dolby AC3, 192 Кбит/сек, 2 ch)
Аудио 3: Japanese (Dolby AC3, 192 Кбит/сек, 2 ch)
Формат субтитров: prerendered (DVD/IDX+SUB)

DVDInfo

Enabled regions: 1, 2, 3, 4, 5, 6, 7, 8
VTS_01 :
Play Length: 01:28:27
Video: NTSC 4:3 (720x480) VBR
Audio:
Russian (Dolby AC3, 2 ch)
English (Dolby AC3, 2 ch)
Japanese (Dolby AC3, 2 ch)
Subtitles:
Russian
Japanese
Japanese
VTS_02 :
Play Length: 00:01:37
Video: NTSC 4:3 (720x480) VBR
Audio:
English (Dolby AC3, 2 ch)
Subtitles:
Japanese
VTS_03 :
Play Length: 00:02:15+00:01:11
Video: NTSC 4:3 (720x480) VBR
Audio:
Japanese (Dolby AC3, 2 ch)
Menu Video:
NTSC 4:3 (720x480) VBR
Menu Audio:
Not specified (Dolby AC3, 2 ch)
Menu Subtitles:
Not specified
Menu Japanese Language Unit :
Root Menu

MediaInfo

Общее
Полное имя : D:\DVD\Death Weekend 1976\VIDEO_TS\VTS_01_1.VOB
Формат : MPEG-PS
Размер файла : 1024 Мбайт
Продолжительность : 22 м.
Режим общего битрейта : Переменный
Общий поток : 6322 Кбит/сек
Видео
Идентификатор : 224 (0xE0)
Формат : MPEG Video
Версия формата : Version 2
Профиль формата : Main@Main
Параметр BVOP формата : Да
Параметр матрицы формата : Выборочная
Параметр GOP формата : Variable
Структура изображения : Frame
Продолжительность : 22 м.
Вид битрейта : Переменный
Битрейт : 5620 Кбит/сек
Максимальный битрейт : 9800 Кбит/сек
Ширина : 720 пикселей
Высота : 480 пикселей
Соотношение сторон : 4:3
Частота кадров : 29,970 (30000/1001) кадров/сек
Стандарт вещания : NTSC
Цветовое пространство : YUV
Субдискретизация насыщенности : 4:2:0
Битовая глубина : 8 бит
Тип развёртки : Чересстрочная
Порядок развёртки : Верхнее поле первое
Метод сжатия : С потерями
Бит/(Пиксели*Кадры) : 0.543
Временной код первого кадра : 01:00:14:03
Оригинал временного кода : Group of pictures header
Размер потока : 910 Мбайт (89%)
Аудио #1
Идентификатор : 189 (0xBD)-128 (0x80)
Формат : AC-3
Формат/Информация : Audio Coding 3
Расширение режима : CM (complete main)
Параметр Endianness формата : Big
Режим смешивания : DVD-Video
Продолжительность : 22 м.
Вид битрейта : Постоянный
Битрейт : 192 Кбит/сек
Каналы : 2 канала
Расположение каналов : Front: L R
Частота : 48,0 КГц
Частота кадров : 31,250 кадров/сек (1536 spf)
Метод сжатия : С потерями
Размер потока : 31,1 Мбайт (3%)
Аудио #2
Идентификатор : 189 (0xBD)-129 (0x81)
Формат : AC-3
Формат/Информация : Audio Coding 3
Расширение режима : CM (complete main)
Параметр Endianness формата : Big
Режим смешивания : DVD-Video
Продолжительность : 22 м.
Вид битрейта : Постоянный
Битрейт : 192 Кбит/сек
Каналы : 2 канала
Расположение каналов : Front: L R
Частота : 48,0 КГц
Частота кадров : 31,250 кадров/сек (1536 spf)
Метод сжатия : С потерями
Размер потока : 31,1 Мбайт (3%)
Аудио #3
Идентификатор : 189 (0xBD)-130 (0x82)
Формат : AC-3
Формат/Информация : Audio Coding 3
Расширение режима : CM (complete main)
Параметр Endianness формата : Big
Режим смешивания : DVD-Video
Продолжительность : 22 м.
Вид битрейта : Постоянный
Битрейт : 192 Кбит/сек
Каналы : 2 канала
Расположение каналов : Front: L R
Частота : 48,0 КГц
Частота кадров : 31,250 кадров/сек (1536 spf)
Метод сжатия : С потерями
Размер потока : 31,1 Мбайт (3%)
Текст #1
Идентификатор : 189 (0xBD)-32 (0x20)
Формат : RLE
Формат/Информация : Run-length encoding
Режим смешивания : DVD-Video
Текст #2
Идентификатор : 189 (0xBD)-33 (0x21)
Формат : RLE
Формат/Информация : Run-length encoding
Режим смешивания : DVD-Video
Меню

Скриншоты меню

Скриншоты


_________________
Показать сообщения:    

Текущее время: Сегодня 07:29

Часовой пояс: GMT



Вы не можете начинать темы
Вы не можете отвечать на сообщения
Вы не можете редактировать свои сообщения
Вы не можете удалять свои сообщения
Вы не можете голосовать в опросах
Вы не можете прикреплять файлы к сообщениям
Вы не можете скачивать файлы