Важное объявление!
У Нас Все раздачи мультитрекерные, при нуле пиров в релизах, можете смело вставать на закачку!
 
Автор Сообщение

HUNTER

Стаж:
4 года 4 месяца
Сообщений:
56719

Репутация: 101

[+] [-]
Вне форума [Профиль] [ЛС]

Смертельный инстинкт / Роковой инстинкт / Фатальный инстинкт / Fatal Instinct
Страна: США
Студия: Metro-Goldwyn-Mayer (MGM)
Жанр: комедия
Год выпуска: 1993
Продолжительность: 01:26:02
Перевод 1: Профессиональный (двухголосый закадровый) НТВ+
Перевод 2: Одноголосый закадровый Стрельцов
Cубтитры: английские
Оригинальная аудиодорожка: английский
Режиссер: Карл Райнер / Carl Reiner
В ролях: Armand Assante / Арманд Ассанте/, Sherilyn Fenn / Шерилин Фенн/, Kate Nelligan / Кэйт Неллигэн/, Sean Young / Шон Янг/, Christopher McDonald / Кристофер МакДоналд/, James Remar / Джеймс Ремар/, Tony Randall / Тони Рэндолл/, Michael Cumpsty / Майкл Кампсти/, John Witherspoon / Джон Уизерспун/, Blake Clark / Блэйк Кларк/, Carl Reiner / Карл Райнер/, Eartha Kitt / Эрта Китт
Описание: Неплохая пародийная комедия на знаменитые триллеры, такие как "Мыс страха", "Основной инстинкт" и др. Слово "инстинкт", как можно заметить, вынесено в название фильма, также как и слово "смертельный" - из "Смертельного влечения" ("Рокового влечения") с тем же Майклом Дугласом. Любители пародий получат удовольствие и ощутят привкус "Аэроплана", "Горячих голов" и "Голого пистолета".
II Сэмпл II IMDB II
Доп. информация: Одноголосый перевод и оригинальная дорога взяты с этой раздачи спасибо spartac
Тип релиза: HDTV 1080i
Контейнер: MKV
Видео: AVC 1920x400 (16:9) 25.0fps Bit rate 5865Kbps
Аудио 1: MP2 48.0 KHz 2ch. 192kbps rus dvo
Аудио 2: AC3 48.0 KHz 2ch. 192kbps rus vo
Аудио 3: AC3 48.0 KHz 2ch. 192kbps eng
Формат субтитров: softsub (SRT)

MediaInfo

Общее
Уникальный идентификатор : 253772108421912899201061610800091855358 (0xBEEABAF2B67F43E6BE4BA21F8F3179FE)
Полное имя : E:\torrent\Fatal.Instinct.1993.HDTV1080i.mkv
Формат : Matroska
Версия формата : Version 4 / Version 2
Размер файла : 3,95 Гбайт
Продолжительность : 1 ч. 26 м.
Общий поток : 6571 Кбит/сек
Дата кодирования : UTC 2014-04-15 23:21:34
Программа кодирования : mkvmerge v6.8.0 ('Theme for Great Cities') 32bit built on Mar 2 2014 21:27:07
Библиотека кодирования : libebml v1.3.0 + libmatroska v1.4.1
Видео
Идентификатор : 1
Формат : AVC
Формат/Информация : Advanced Video Codec
Профиль формата : High@L4.0
Параметр CABAC формата : Да
Параметр ReFrames формата : 3 кадра
Параметр GOP формата : M=4, N=32
Идентификатор кодека : V_MPEG4/ISO/AVC
Продолжительность : 1 ч. 26 м.
Битрейт : 5865 Кбит/сек
Ширина : 1920 пикселей
Высота : 1080 пикселей
Соотношение сторон : 16:9
Режим частоты кадров : Постоянный
Частота кадров : 25,000 кадров/сек
Стандарт вещания : Component
Цветовое пространство : YUV
Субдискретизация насыщенности : 4:2:0
Битовая глубина : 8 бит
Тип развёртки : Чересстрочная
Порядок развёртки : Верхнее поле первое
Бит/(Пиксели*Кадры) : 0.113
Размер потока : 3,52 Гбайт (89%)
Заголовок : Fatal.Instinct.1993.HDTV1080i
Default : Да
Forced : Нет
Основные цвета : BT.709
Характеристики трансфера : BT.709
Коэффициенты матрицы : BT.709
Аудио #1
Идентификатор : 2
Формат : MPEG Audio
Версия формата : Version 1
Профиль формата : Layer 2
Идентификатор кодека : A_MPEG/L2
Идентификатор кодека/Подсказка : MP2
Продолжительность : 1 ч. 26 м.
Вид битрейта : Постоянный
Битрейт : 192 Кбит/сек
Каналы : 2 канала
Частота : 48,0 КГц
Метод сжатия : С потерями
Размер потока : 118 Мбайт (3%)
Заголовок : Fatal.Instinct_MP2_2ch_DVO_NTV+
Язык : Russian
Default : Да
Forced : Нет
Аудио #2
Идентификатор : 3
Формат : AC-3
Формат/Информация : Audio Coding 3
Расширение режима : CM (complete main)
Параметр Endianness формата : Big
Идентификатор кодека : A_AC3
Продолжительность : 1 ч. 26 м.
Вид битрейта : Постоянный
Битрейт : 192 Кбит/сек
Каналы : 2 канала
Расположение каналов : Front: L R
Частота : 48,0 КГц
Битовая глубина : 16 бит
Метод сжатия : С потерями
Размер потока : 118 Мбайт (3%)
Заголовок : Fatal.Instinct_AC3_2ch_AVO
Язык : Russian
Default : Нет
Forced : Нет
Аудио #3
Идентификатор : 4
Формат : AC-3
Формат/Информация : Audio Coding 3
Расширение режима : CM (complete main)
Параметр Endianness формата : Big
Идентификатор кодека : A_AC3
Продолжительность : 1 ч. 26 м.
Вид битрейта : Постоянный
Битрейт : 192 Кбит/сек
Каналы : 2 канала
Расположение каналов : Front: L R
Частота : 48,0 КГц
Битовая глубина : 16 бит
Метод сжатия : С потерями
Размер потока : 118 Мбайт (3%)
Заголовок : Fatal.Instinct_AC3_2ch_original eng
Язык : English
Default : Нет
Forced : Нет
Текст
Идентификатор : 5
Формат : UTF-8
Идентификатор кодека : S_TEXT/UTF8
Идентификатор кодека/Информация : UTF-8 Plain Text
Заголовок : Fatal.Instinct_subtitle eng
Язык : English
Default : Нет
Forced : Нет

Скриншот с названием фильма

Скриншоты

Сравнение с DVD



_________________
Показать сообщения:    

Текущее время: Сегодня 23:19

Часовой пояс: GMT



Вы не можете начинать темы
Вы не можете отвечать на сообщения
Вы не можете редактировать свои сообщения
Вы не можете удалять свои сообщения
Вы не можете голосовать в опросах
Вы не можете прикреплять файлы к сообщениям
Вы не можете скачивать файлы