Важное объявление!
У Нас Все раздачи мультитрекерные, при нуле пиров в релизах, можете смело вставать на закачку!
 
Автор Сообщение

Killer

Стаж:
4 года 4 месяца
Сообщений:
61
Вне форума [Профиль] [ЛС]

Смертельные игры / Арена / Arena-
Страна: США
Жанр: боевик, триллер
Год выпуска: 2011
Продолжительность: 01:34:14
Перевод: Профессиональный (многоголосый) лицензия
Cубтитры: русский, английский
Оригинальная аудиодорожка: английский
Режиссер: Джона Луп / Jonah Loop
В ролях: Келлан Латс, Нина Добрев, Сэмюэл Л. Джексон, Джеймс Римар, Дэниэл Дэ Ким, Бо Брассо, Майра Лил, Ванесса Бренч, Джонни Месснер, Дерек Мирс...
Описание: Можно ли заработать состояние на жажде крови? Ушлый бизнесмен-садист (Сэмюэл Л. Джексон)создает подпольный вэб-сайт, в реальном времени транслирующий жестокие битвы гладиаторов, где схватки ведутся не на жизнь, а на смерть. Его новый боец - Дэвид Лорд (Келлан Латс), похищенный пожарный, оказавшийся в заточении и вынужденный бороться за свою жизнь. Чтобы выкупить собственную свободу, Лорд соглашается принять участие в серии кровопролитных сражений. Но по мере того, как возрастает число жертв, Лорд внезапно узнает секрет, который способен поставить крест на бесчеловечном бизнесе и сравнять бойцовский клуб с землей.- -Тип релиза: BDRip 720p
Контейнер: MKV
Видео: MPEG-4 AVC Video, 6801 кбпс, 23,976 fps, 1280x542 (2.35:1)
Аудио 1: 48 kHz, AC3, 6 ch, 384.00 kbps Constant, Русский
Аудио 2: 48 kHz, DTS, 6 ch, 1536.00 kbps Constant, Английский
Формат субтитров: SoftSub (srt)-

MediaInfo

Общее
Полное имя : Smertelnye.igry.2011.P.BDRip.720p.mkv
Формат : Matroska
Версия формата : Version 2
Размер файла : 5,72 Гбайт
Продолжительность : 1 ч. 34 м.
Общий поток : 8688 Кбит/сек
Название фильма : UNIONGANG.TV -TVB-
Дата кодирования : UTC 2012-01-14 09:32:01
Программа кодирования : mkvmerge v5.2.1 ('A Far Off Place') built on Jan 2 2012 23:21:10
Библиотека кодирования : libebml v1.2.3 + libmatroska v1.3.0
Видео
Идентификатор : 1
Формат : AVC
Формат/Информация : Advanced Video Codec
Профиль формата : High@L4.1
Параметр CABAC формата : Да
Параметр ReFrames формата : 11 кадров
Идентификатор кодека : V_MPEG4/ISO/AVC
Продолжительность : 1 ч. 34 м.
Битрейт : 6801 Кбит/сек
Ширина : 1280 пикселей
Высота : 542 пикселя
Соотношение сторон : 2,35:1
Частота кадров : 23,976 кадра/сек
Цветовое пространство : YUV
Субдискретизация насыщенности : 4:2:0
Битовая глубина : 8 бит
Тип развёртки : Прогрессивная
Бит/(Пиксели*Кадры) : 0.409
Размер потока : 4,36 Гбайт (76%)
Заголовок : HDChina
Библиотека кодирования : x264 core 116 r2074 2641b9e
Настройки программы : cabac=1 / ref=11 / deblock=1:-3:-3 / analyse=0x3:0x133 / me=umh / subme=10 / psy=1 / psy_rd=1.00:0.00 / mixed_ref=1 / me_range=32 / chroma_me=1 / trellis=2 / 8x8dct=1 / cqm=0 / deadzone=21,11 / fast_pskip=1 / chroma_qp_offset=-2 / threads=12 / sliced_threads=0 / nr=0 / decimate=0 / interlaced=0 / bluray_compat=0 / constrained_intra=0 / bframes=6 / b_pyramid=2 / b_adapt=2 / b_bias=0 / direct=3 / weightb=1 / open_gop=0 / weightp=2 / keyint=250 / keyint_min=23 / scenecut=40 / intra_refresh=0 / rc_lookahead=60 / rc=2pass / mbtree=1 / bitrate=6801 / ratetol=1.0 / qcomp=0.60 / qpmin=0 / qpmax=69 / qpstep=4 / cplxblur=20.0 / qblur=0.5 / vbv_maxrate=50000 / vbv_bufsize=50000 / nal_hrd=none / ip_ratio=1.50 / aq=1:1.00
Язык : English
Default : Да
Forced : Нет
Аудио #1
Идентификатор : 2
Формат : AC-3
Формат/Информация : Audio Coding 3
Расширение режима : CM (complete main)
Идентификатор кодека : A_AC3
Продолжительность : 1 ч. 34 м.
Вид битрейта : Постоянный
Битрейт : 384 Кбит/сек
Каналы : 6 каналов
Расположение каналов : Front: L C R, Side: L R, LFE
Частота : 48,0 КГц
Битовая глубина : 16 бит
Метод сжатия : С потерями
Размер потока : 259 Мбайт (4%)
Язык : Russian
Default : Да
Forced : Нет
Аудио #2
Идентификатор : 3
Формат : DTS
Формат/Информация : Digital Theater Systems
Идентификатор кодека : A_DTS
Продолжительность : 1 ч. 34 м.
Вид битрейта : Постоянный
Битрейт : 1510 Кбит/сек
Каналы : 6 каналов
Расположение каналов : Front: L C R, Side: L R, LFE
Частота : 48,0 КГц
Битовая глубина : 24 бит
Метод сжатия : С потерями
Размер потока : 1018 Мбайт (17%)
Язык : English
Default : Нет
Forced : Нет
Текст #1
Идентификатор : 4
Формат : UTF-8
Идентификатор кодека : S_TEXT/UTF8
Идентификатор кодека/Информация : UTF-8 Plain Text
Язык : Russian
Default : Нет
Forced : Нет
Текст #2
Идентификатор : 5
Формат : UTF-8
Идентификатор кодека : S_TEXT/UTF8
Идентификатор кодека/Информация : UTF-8 Plain Text
Язык : English
Default : Нет
Forced : Нет
-

Скриншоты

-

Обложка и блин

http://multi-up.com/628485
-
Показать сообщения:    

Текущее время: Сегодня 11:11

Часовой пояс: GMT



Вы не можете начинать темы
Вы не можете отвечать на сообщения
Вы не можете редактировать свои сообщения
Вы не можете удалять свои сообщения
Вы не можете голосовать в опросах
Вы не можете прикреплять файлы к сообщениям
Вы не можете скачивать файлы
Наши партнеры: интернет магазин Ивановского трикотажа textilla.ru