Важное объявление!
У Нас Все раздачи мультитрекерные, при нуле пиров в релизах, можете смело вставать на закачку!
 
Автор Сообщение

HUNTER

Стаж:
4 года 4 месяца
Сообщений:
56798

Репутация: 101

[+] [-]
Вне форума [Профиль] [ЛС]

Смертельное оружие: Квадрология / Lethal Weapon: Collection

Смертельное оружие / Lethal Weapon

Смертельное оружие / Lethal Weapon
«Two Cops. Glover carries a weapon..... Gibson is one. He's the only L.A cop registered as a Lethal Weapon»-
Год выпуска: 1987
Страна: США
Жанр: боевик, триллер, комедия, криминал
Продолжительность: 01:49:37
Перевод: Профессиональный (полное дублирование)
Русские субтитры: нет
Режиссер: Ричард Доннер
В ролях: Мэл Гибсон, Дэнни Гловер, Гэри Бьюзи, Митч Райан, Том Аткинс, Дарлен Лав, Трэйси Вульф, Джеки Суонсон, Дэймон Хайнс, Эбони Смит
Описание: Обаяние этого вечного приключенческого сюжета о паре полицейских — в великолепной игре Гибсона и Гловера. Первый — слегка чокнутый смельчак Риггз, которому из-за его легендарного вьетнамского прошлого и не менее легендарного настоящего дали уважительную кличку «смертельное оружие». Его чернокожий напарник Мертаф — человек куда более земной, обремененный семьей и предрассудками.
Качество: BDRip
Формат: MKV
Видео кодек: Н264
Аудио кодек: AC3
Видео: размер кадра: 1280x720, частота кадров: 23,976 fps, битрейт: 4 967кб/с;
Аудио #1: 48.0 kHz, AC3 5.1 at 384 Кбит/сек |Дубляж|;

Mediainfo

E:\Rips\Lethal Weapon\Lethal Weapon 1.mkv
General
Complete name : E:\Rips\Lethal Weapon\Lethal Weapon 1.mkv
Format : Matroska
File size : 4.18 GiB
Duration : 1h 49mn
Overall bit rate : 5 460 Kbps
Encoded date : UTC 2010-11-27 16:32:18
Writing application : mkvmerge v4.2.0 ('No Talking') nai?ea io Jul 28 2010 18:38:23
Writing library : libebml v1.0.0 + libmatroska v1.0.0
Video #2
ID : 2
Format : AVC
Format/Info : Advanced Video Codec
Format profile : [url=mailto:High@L3.1]High@L3.1[/url]
Format settings, CABAC : Yes
Format settings, ReFrames : 2 frames
Muxing mode : Container profile=Unknown@3.1
Codec ID : V_MPEG4/ISO/AVC
Duration : 1h 49mn
Bit rate : 4 967 Kbps
Nominal bit rate : 5 078 Kbps
Width : 1 280 pixels
Height : 720 pixels
Display aspect ratio : 16:9
Frame rate mode : Variable
Frame rate : 25.000 fps
Resolution : 24 bits
Colorimetry : 4:2:0
Scan type : Progressive
Bits/(Pixel*Frame) : 0.216
Stream size : 3.80 GiB (91%)
Writing library : x264 core 83 r1391 3d0f110
Encoding settings : cabac=1 / ref=2 / deblock=1:0:-2 / analyse=0x3:0x113 / me=hex / subme=6 / psy=1 / psy_rd=1.0:0.0 / mixed_ref=1 / me_range=16 / chroma_me=1 / trellis=1 / 8x8dct=1 / cqm=0 / deadzone=21,11 / fast_pskip=1 / chroma_qp_offset=-2 / threads=6 / sliced_threads=0 / nr=0 / decimate=0 / mbaff=0 / constrained_intra=0 / bframes=16 / b_pyramid=0 / b_adapt=1 / b_bias=3 / direct=3 / wpredb=1 / wpredp=2 / keyint=250 / keyint_min=25 / scenecut=45 / intra_refresh=0 / rc_lookahead=40 / rc=2pass / mbtree=1 / bitrate=5078 / ratetol=1.0 / qcomp=0.60 / qpmin=13 / qpmax=51 / qpstep=5 / cplxblur=20.0 / qblur=0.5 / ip_ratio=1.40 / aq=1:1.00
Audio #1
ID : 1
Format : AC-3
Format/Info : Audio Coding 3
Codec ID : A_AC3
Duration : 1h 49mn
Bit rate mode : Constant
Bit rate : 384 Kbps
Channel(s) : 6 channels
Channel positions : Front: L C R, Surround: L R, LFE
Sampling rate : 48.0 KHz
Stream size : 301 MiB (7%)
Language : Russian

Скриншоты

Смертельное оружие 2 / Lethal Weapon 2

Смертельное оружие 2 / Lethal Weapon 2
«Je conduis. Non, je conduis.[Канада]»-
Год выпуска: 1989
Страна: США
Жанр: боевик, триллер, комедия, криминал
Продолжительность: 01:54:27
Перевод: Профессиональный (полное дублирование)
Русские субтитры: нет
Режиссер: Ричард Доннер
В ролях: Мэл Гибсон, Дэнни Гловер, Джо Пеши, Джосс Экленд, Деррик О’Коннор, Пэтси Кензит, Дарлен Лав, Трэйси Вульф, Стив Кэхэн, Марк Ролстон
Описание: Зрителя вновь ждет встреча с неустанно сражающейся с преступниками парочкой друзей-полицейских (Мел Гибсон и Дэнни Гловер). Спасая собственную жизнь и жизнь главного свидетеля (Джо Пеши), они вынуждены схватиться с шайкой южноафриканских контрабандистов.
Качество: BDRip
Формат: MKV
Видео кодек: Н264
Аудио кодек: AC3
Видео: размер кадра: 1280x534, частота кадров: 23,976 fps, битрейт: 4 430кб/с;
Аудио #1: 48.0 kHz, AC3 5.1 at 640 Кбит/сек |Дубляж|;

Mediainfo

E:\Rips\Lethal Weapon\Lethal Weapon 2.mkv
General
Complete name : E:\Rips\Lethal Weapon\Lethal Weapon 2.mkv
Format : Matroska
File size : 4.14 GiB
Duration : 1h 54mn
Overall bit rate : 5 173 Kbps
Encoded date : UTC 2010-12-01 19:39:46
Writing application : mkvmerge v4.2.0 ('No Talking') nai?ea io Jul 28 2010 18:38:23
Writing library : libebml v1.0.0 + libmatroska v1.0.0
Video #1
ID : 1
Format : AVC
Format/Info : Advanced Video Codec
Format profile : [url=mailto:High@L3.1]High@L3.1[/url]
Format settings, CABAC : Yes
Format settings, ReFrames : 2 frames
Muxing mode : Container profile=Unknown@3.1
Codec ID : V_MPEG4/ISO/AVC
Duration : 1h 54mn
Bit rate : 4 430 Kbps
Nominal bit rate : 4 533 Kbps
Width : 1 280 pixels
Height : 534 pixels
Display aspect ratio : 2.35:1
Frame rate mode : Variable
Frame rate : 23.976 fps
Resolution : 24 bits
Colorimetry : 4:2:0
Scan type : Progressive
Bits/(Pixel*Frame) : 0.270
Stream size : 3.54 GiB (86%)
Writing library : x264 core 83 r1391 3d0f110
Encoding settings : cabac=1 / ref=2 / deblock=1:0:-1 / analyse=0x3:0x113 / me=hex / subme=5 / psy=1 / psy_rd=0.0:0.0 / mixed_ref=0 / me_range=16 / chroma_me=1 / trellis=1 / 8x8dct=1 / cqm=0 / deadzone=21,11 / fast_pskip=1 / chroma_qp_offset=0 / threads=6 / sliced_threads=0 / nr=0 / decimate=0 / mbaff=0 / constrained_intra=0 / bframes=16 / b_pyramid=0 / b_adapt=1 / b_bias=3 / direct=3 / wpredb=1 / wpredp=2 / keyint=250 / keyint_min=25 / scenecut=45 / intra_refresh=0 / rc_lookahead=40 / rc=2pass / mbtree=1 / bitrate=4533 / ratetol=1.0 / qcomp=0.60 / qpmin=13 / qpmax=51 / qpstep=5 / cplxblur=20.0 / qblur=0.5 / ip_ratio=1.40 / aq=1:1.00
Audio #2
ID : 2
Format : AC-3
Format/Info : Audio Coding 3
Codec ID : A_AC3
Duration : 1h 54mn
Bit rate mode : Constant
Bit rate : 640 Kbps
Channel(s) : 6 channels
Channel positions : Front: L C R, Surround: L R, LFE
Sampling rate : 48.0 KHz
Stream size : 524 MiB (12%)
Title : Dub_Most
Language : Russian

Скриншоты

Смертельное оружие 3 / Lethal Weapon 3

Смертельное оружие 3 / Lethal Weapon 3
«The magic is back again!»-
Год выпуска: 1992
Страна: США
Жанр: боевик, триллер, комедия, криминал
Продолжительность: 01:57:53
Перевод: Профессиональный (полное дублирование)
Русские субтитры: нет
Режиссер: Ричард Доннер
В ролях: Мэл Гибсон, Дэнни Гловер, Джо Пеши, Рене Руссо, Стюарт Уилсон, Стив Кэхэн
Описание: Третий фильм о неустрашимом полицейском Риггсе. На этот раз Мартин и его напарник Роджер сталкиваются с гангстерами, похищающими оружие со склада полиции. Преступную группу, за которой тянется длинный кровавый след, возглавляет бывший сержант Джек Тревис. Найти улики против «грязного» полицейского напарникам помогает Лорна Коул — решительная женщина-полицейский, которая не останавливается перед лицом опасности и уверенно вступает в схватку с противниками...
Качество: BDRip
Формат: MKV
Видео кодек: Н264
Аудио кодек: AC3
Видео: размер кадра: 1280x530, частота кадров: 23,976 fps, битрейт: 4 312 кб/с;
Аудио #1: 48.0 kHz, AC3 5.1 at 640 Кбит/сек |Дубляж|;

Mediainfo

E:\Rips\Lethal Weapon\Lethal Weapon 3.mkv
General
Complete name : E:\Rips\Lethal Weapon\Lethal Weapon 3.mkv
Format : Matroska
File size : 4.16 GiB
Duration : 1h 57mn
Overall bit rate : 5 052 Kbps
Encoded date : UTC 2010-11-29 18:47:54
Writing application : mkvmerge v4.2.0 ('No Talking') nai?ea io Jul 28 2010 18:38:23
Writing library : libebml v1.0.0 + libmatroska v1.0.0
Video #1
ID : 1
Format : AVC
Format/Info : Advanced Video Codec
Format profile : [url=mailto:High@L3.1]High@L3.1[/url]
Format settings, CABAC : Yes
Format settings, ReFrames : 2 frames
Muxing mode : Container profile=Unknown@3.1
Codec ID : V_MPEG4/ISO/AVC
Duration : 1h 57mn
Bit rate : 4 312 Kbps
Nominal bit rate : 4 411 Kbps
Width : 1 280 pixels
Height : 530 pixels
Display aspect ratio : 2.40:1
Frame rate mode : Variable
Frame rate : 23.976 fps
Resolution : 24 bits
Colorimetry : 4:2:0
Scan type : Progressive
Bits/(Pixel*Frame) : 0.265
Stream size : 3.55 GiB (85%)
Writing library : x264 core 83 r1391 3d0f110
Encoding settings : cabac=1 / ref=2 / deblock=1:0:-1 / analyse=0x3:0x113 / me=hex / subme=5 / psy=1 / psy_rd=0.0:0.0 / mixed_ref=0 / me_range=16 / chroma_me=1 / trellis=1 / 8x8dct=1 / cqm=0 / deadzone=21,11 / fast_pskip=1 / chroma_qp_offset=0 / threads=6 / sliced_threads=0 / nr=0 / decimate=0 / mbaff=0 / constrained_intra=0 / bframes=16 / b_pyramid=0 / b_adapt=1 / b_bias=3 / direct=3 / wpredb=1 / wpredp=2 / keyint=250 / keyint_min=25 / scenecut=45 / intra_refresh=0 / rc_lookahead=40 / rc=2pass / mbtree=1 / bitrate=4411 / ratetol=1.0 / qcomp=0.60 / qpmin=13 / qpmax=51 / qpstep=5 / cplxblur=20.0 / qblur=0.5 / ip_ratio=1.40 / aq=1:1.00
Audio #2
ID : 2
Format : AC-3
Format/Info : Audio Coding 3
Codec ID : A_AC3
Duration : 1h 57mn
Bit rate mode : Constant
Bit rate : 640 Kbps
Channel(s) : 6 channels
Channel positions : Front: L C R, Surround: L R, LFE
Sampling rate : 48.0 KHz
Stream size : 540 MiB (13%)
Title : Dub
Language : Russian

Скриншоты

Смертельное оружие 4 / Lethal Weapon 4

Смертельное оружие 4 / Lethal Weapon 4
«With 4 you get Kung Fu»-
Год выпуска: 1998
Страна: США
Жанр: боевик, триллер, комедия, криминал
Продолжительность: 02:07:23
Перевод: Профессиональный (полное дублирование)
Русские субтитры: нет
Режиссер: Ричард Доннер
В ролях: Мэл Гибсон, Дэнни Гловер, Джо Пеши, Рене Руссо, Крис Рок, Джет Ли, Стив Кэхэн, Ким Чан, Дарлен Лав, Трэйси Вульф
Описание: Главный герой Риггз ждет, как он надеется, сына от Лорны Коул, а Роджер — внука. Оба уже ощущают возраст, им дали звания капитанов, но сердца их все еще молоды и без приключений не могут. В этом 4-м по счету фильме их дорожки случайно пересеклись с китайскими мафиози, печатающими фальшивые деньги. В фильме есть юмор, множество перестрелок, драк, погонь, головокружительных трюков. Взрываются бензовозы, машины, корабли садятся на мель, Джет Ли показывает свое мастерство в восточных единоборствах...
Качество: BDRip
Формат: MKV
Видео кодек: Н264
Аудио кодек: AC3
Видео: размер кадра: 1280x534, частота кадров: 23,976 fps, битрейт: 3 937кб/с;
Аудио #1: 48.0 kHz, AC3 5.1 at 640 Кбит/сек |Дубляж|;

Mediainfo

E:\Rips\Lethal Weapon\Lethal Weapon 4.mkv
General
Complete name : E:\Rips\Lethal Weapon\Lethal Weapon 4.mkv
Format : Matroska
File size : 4.16 GiB
Duration : 2h 7mn
Overall bit rate : 4 670 Kbps
Encoded date : UTC 2010-11-30 19:09:02
Writing application : mkvmerge v4.2.0 ('No Talking') nai?ea io Jul 28 2010 18:38:23
Writing library : libebml v1.0.0 + libmatroska v1.0.0
Video #1
ID : 1
Format : AVC
Format/Info : Advanced Video Codec
Format profile : [url=mailto:High@L3.1]High@L3.1[/url]
Format settings, CABAC : Yes
Format settings, ReFrames : 2 frames
Muxing mode : Container profile=Unknown@3.1
Codec ID : V_MPEG4/ISO/AVC
Duration : 2h 7mn
Bit rate : 3 937 Kbps
Nominal bit rate : 4 029 Kbps
Width : 1 280 pixels
Height : 534 pixels
Display aspect ratio : 2.35:1
Frame rate mode : Variable
Frame rate : 23.976 fps
Resolution : 24 bits
Colorimetry : 4:2:0
Scan type : Progressive
Bits/(Pixel*Frame) : 0.240
Stream size : 3.50 GiB (84%)
Writing library : x264 core 83 r1391 3d0f110
Encoding settings : cabac=1 / ref=2 / deblock=1:0:-1 / analyse=0x3:0x113 / me=hex / subme=5 / psy=1 / psy_rd=0.0:0.0 / mixed_ref=0 / me_range=16 / chroma_me=1 / trellis=1 / 8x8dct=1 / cqm=0 / deadzone=21,11 / fast_pskip=1 / chroma_qp_offset=0 / threads=6 / sliced_threads=0 / nr=0 / decimate=0 / mbaff=0 / constrained_intra=0 / bframes=16 / b_pyramid=0 / b_adapt=1 / b_bias=3 / direct=3 / wpredb=1 / wpredp=2 / keyint=250 / keyint_min=25 / scenecut=45 / intra_refresh=0 / rc_lookahead=40 / rc=2pass / mbtree=1 / bitrate=4029 / ratetol=1.0 / qcomp=0.60 / qpmin=13 / qpmax=51 / qpstep=5 / cplxblur=20.0 / qblur=0.5 / ip_ratio=1.40 / aq=1:1.00
Audio #2
ID : 2
Format : AC-3
Format/Info : Audio Coding 3
Codec ID : A_AC3
Duration : 2h 7mn
Bit rate mode : Constant
Bit rate : 640 Kbps
Channel(s) : 6 channels
Channel positions : Front: L C R, Surround: L R, LFE
Sampling rate : 48.0 KHz
Stream size : 583 MiB (14%)
Title : Dub
Language : Russian

Скриншоты

Релиз подготовлен специально для Rustorka.com Приятного просмотраОформление by PhoboSSS

_________________
Показать сообщения:    

Текущее время: Сегодня 21:45

Часовой пояс: GMT



Вы не можете начинать темы
Вы не можете отвечать на сообщения
Вы не можете редактировать свои сообщения
Вы не можете удалять свои сообщения
Вы не можете голосовать в опросах
Вы не можете прикреплять файлы к сообщениям
Вы не можете скачивать файлы