Важное объявление!
У Нас Все раздачи мультитрекерные, при нуле пиров в релизах, можете смело вставать на закачку!
 
Автор Сообщение

HUNTER

Стаж:
4 года 4 месяца
Сообщений:
56829

Репутация: 101

[+] [-]
Вне форума [Профиль] [ЛС]

Смертельное оружие / Lethal Weapon-
Год выпуска: 1987
Выпущено: США
Жанр: боевик, триллер, комедия, криминал
Продолжительность: 01:49:37
Перевод: Профессиональный (полное дублирование) Blu-ray CEE
+ Профессиональный (полное дублирование) Варус-Видео
+ Профессиональный (многоголосый, закадровый) ОРТ
+ Профессиональный (двухголосый, закадровый) НТВ
+ Профессиональный (многоголосый, закадровый) Россия
+ Профессиональный (многоголосый, закадровый) Премьер Видео Фильм
+ Одноголосый закадровый М.Яроцкий
+ Авторский одноголосый А.Гаврилов
+ Авторский одноголосый В.Горчаков
+ Авторский одноголосый Ю.Живов
+ Авторский одноголосый А.Михалев
+ Авторский одноголосый Л.Володарский
+ Авторский одноголосый Г.Либергал
Оригинальная звуковая дорожка: English
Субтитры: Russian, English-Режиссер: Ричард Доннер / Richard Donner
В ролях: Мэл Гибсон, Дэнни Гловер, Гари Бьюзи, Митч Райан, Том Аткинс, Дарлен Лав, Трэйси Вульф, Джеки Суонсон, Дэймон Хайнс, Эбони Смит, Bill Kalmenson, Lycia Naff, Патрик Камерон, Дон Гордон, Джимми Ф. Скэггз, Jason Ronard, Blackie Dammett, Гэйл Боуман, Robert Fol, Сэльма Арчерд, Ричард Б. Уайтакер
О фильме: Лос-анджелесский полицейский Мартин Риггз смел и безрассуден, он буквально лезет под пули, не боясь за свою жизнь. Семьянин Роджер Мертаф старше и осторожнее. Двое полицейских, ветераны Вьетнама, расследуют дело, связанное с подозрительным самоубийством девушки. Нить поисков приводит их к торговцам наркотиками, которые также оказываются ветеранами вьетнамской войны, сплоченными в крепкую преступную организацию.
SbR!
Релиз:
Формат: MKV
Видео: 1280x720 at 23.976 fps, x264@L4.1, ~8000 kbps
Аудио #01: Russian: 48 kHz, AC3, 3/2 (L,C,R,l,r) + LFE ch, 640 kbps |Дубляж, Blu-ray CEE|
Аудио #02: Russian: 48 kHz, AC3, 2/0 (L,R) ch, 192 kbps |Дубляж, Варус Видео|
Аудио #03: Russian: 48 kHz, AC3, 2/0 (L,R) ch, 192 kbps |Многоголосый закадровый, ОРТ|
Аудио #04: Russian: 48 kHz, AC3, 2/0 (L,R) ch, 192 kbps |Двухголосый закадровый, НТВ|
Аудио #05: Russian: 48 kHz, AC3, 2/0 (L,R) ch, 192 kbps |Многоголосый закадровый, Россия|
Аудио #06: Russian: 48 kHz, AC3, 3/2 (L,C,R,l,r) + LFE ch, 448 kbps |Многоголосый закадровый, Премьер Видео Фильм|
Аудио #07: Russian: 48 kHz, DTS, 3/2 (L,C,R,l,r) + LFE ch, 1509 kbps |Одноголосый закадровый, М. Яроцкий|
Аудио #08: Russian: 48 kHz, AC3, 3/2 (L,C,R,l,r) + LFE ch, 448 kbps |Одноголосый закадровый, А. Гаврилов|
Аудио #09: Russian: 48 kHz, AC3, 3/2 (L,C,R,l,r) + LFE ch, 448 kbps |Одноголосый закадровый, В. Горчаков|
Аудио #10: Russian: 48 kHz, AC3, 3/2 (L,C,R,l,r) + LFE ch, 448 kbps |Одноголосый закадровый, Ю. Живов|
Аудио #11: Russian: 48 kHz, AC3, 3/2 (L,C,R,l,r) + LFE ch, 448 kbps |Одноголосый закадровый, А. Михалёв|
Аудио #12: Russian: 48 kHz, AC3, 3/2 (L,C,R,l,r) + LFE ch, 448 kbps |Одноголосый закадровый, Л. Володарский|
Аудио #13: Russian: 48 kHz, AC3, 3/2 (L,C,R,l,r) + LFE ch, 448 kbps |Одноголосый закадровый, Г. Либергал|
Аудио #14: English: 48 kHz, DTS, 3/2 (L,C,R,l,r) + LFE ch, 1509 kbps
Семпл-

Source vs Encode






-

mInfo

Формат : Matroska
Версия формата : Version 4 / Version 2
Размер файла : 11,9 Гбайт
Продолжительность : 1 ч. 49 м.
Общий поток : 15,6 Мбит/сек
Название фильма : Lethal Weapon (1987) - Release for HDCLUB by SbR
Дата кодирования : UTC 2014-08-28 04:20:33
Программа кодирования : mkvmerge v7.1.0 ('Good Love') 64bit built on Jul 27 2014 13:06:55
Библиотека кодирования : libebml v1.3.0 + libmatroska v1.4.1
Attachment : Yes / Yes
Видео
Идентификатор : 1
Формат : AVC
Формат/Информация : Advanced Video Codec
Профиль формата : High@L4.1
Параметр CABAC формата : Да
Параметр ReFrames формата : 9 кадров
Идентификатор кодека : V_MPEG4/ISO/AVC
Продолжительность : 1 ч. 49 м.
Битрейт : 8000 Кбит/сек
Ширина : 1280 пикселей
Высота : 720 пикселей
Соотношение сторон : 16:9
Режим частоты кадров : Постоянный
Частота кадров : 23,976 кадра/сек
Цветовое пространство : YUV
Субдискретизация насыщенности : 4:2:0
Битовая глубина : 8 бит
Тип развёртки : Прогрессивная
Бит/(Пиксели*Кадры) : 0.362
Размер потока : 5,89 Гбайт (49%)
Заголовок : Release for HDCLUB
Библиотека кодирования : x264 core 142 r2453 ea0ca51
Настройки программы : cabac=1 / ref=9 / deblock=1:-2:-2 / analyse=0x3:0x133 / me=umh / subme=11 / psy=1 / psy_rd=1.00:0.00 / mixed_ref=1 / me_range=32 / chroma_me=1 / trellis=2 / 8x8dct=1 / cqm=0 / deadzone=21,11 / fast_pskip=0 / chroma_qp_offset=-2 / threads=12 / lookahead_threads=2 / sliced_threads=0 / nr=0 / decimate=1 / interlaced=0 / bluray_compat=0 / constrained_intra=0 / bframes=9 / b_pyramid=2 / b_adapt=2 / b_bias=0 / direct=3 / weightb=1 / open_gop=0 / weightp=2 / keyint=250 / keyint_min=23 / scenecut=40 / intra_refresh=0 / rc_lookahead=60 / rc=2pass / mbtree=0 / bitrate=8000 / ratetol=1.0 / qcomp=0.70 / qpmin=0 / qpmax=69 / qpstep=4 / cplxblur=20.0 / qblur=0.5 / vbv_maxrate=62500 / vbv_bufsize=78125 / nal_hrd=none / filler=0 / ip_ratio=1.40 / pb_ratio=1.30 / aq=1:0.80
Язык : English
Default : Да
Forced : Нет
Основные цвета : BT.709
Характеристики трансфера : BT.709
Коэффициенты матрицы : BT.709
Аудио #1
Идентификатор : 2
Формат : AC-3
Формат/Информация : Audio Coding 3
Расширение режима : CM (complete main)
Параметр Endianness формата : Big
Идентификатор кодека : A_AC3
Продолжительность : 1 ч. 49 м.
Вид битрейта : Постоянный
Битрейт : 640 Кбит/сек
Каналы : 6 каналов
Расположение каналов : Front: L C R, Side: L R, LFE
Частота : 48,0 КГц
Битовая глубина : 16 бит
Метод сжатия : С потерями
Размер потока : 502 Мбайт (4%)
Заголовок : Dub, Blu-ray CEE / Мост Видео
Язык : Russian
Default : Да
Forced : Нет
Аудио #2
Идентификатор : 3
Формат : AC-3
Формат/Информация : Audio Coding 3
Расширение режима : CM (complete main)
Параметр Endianness формата : Big
Идентификатор кодека : A_AC3
Продолжительность : 1 ч. 49 м.
Вид битрейта : Постоянный
Битрейт : 192 Кбит/сек
Каналы : 2 канала
Расположение каналов : Front: L R
Частота : 48,0 КГц
Битовая глубина : 16 бит
Метод сжатия : С потерями
Размер потока : 151 Мбайт (1%)
Заголовок : Dub, Варус Видео
Язык : Russian
Default : Нет
Forced : Нет
Аудио #3
Идентификатор : 4
Формат : AC-3
Формат/Информация : Audio Coding 3
Расширение режима : CM (complete main)
Параметр Endianness формата : Big
Идентификатор кодека : A_AC3
Продолжительность : 1 ч. 49 м.
Вид битрейта : Постоянный
Битрейт : 192 Кбит/сек
Каналы : 2 канала
Расположение каналов : Front: L R
Частота : 48,0 КГц
Битовая глубина : 16 бит
Метод сжатия : С потерями
Размер потока : 151 Мбайт (1%)
Заголовок : MVO, ОРТ
Язык : Russian
Default : Нет
Forced : Нет
Аудио #4
Идентификатор : 5
Формат : AC-3
Формат/Информация : Audio Coding 3
Расширение режима : CM (complete main)
Параметр Endianness формата : Big
Идентификатор кодека : A_AC3
Продолжительность : 1 ч. 49 м.
Вид битрейта : Постоянный
Битрейт : 192 Кбит/сек
Каналы : 2 канала
Расположение каналов : Front: L R
Частота : 48,0 КГц
Битовая глубина : 16 бит
Метод сжатия : С потерями
Размер потока : 151 Мбайт (1%)
Заголовок : DVO, НТВ
Язык : Russian
Default : Нет
Forced : Нет
Аудио #5
Идентификатор : 6
Формат : AC-3
Формат/Информация : Audio Coding 3
Расширение режима : CM (complete main)
Параметр Endianness формата : Big
Идентификатор кодека : A_AC3
Продолжительность : 1 ч. 49 м.
Вид битрейта : Постоянный
Битрейт : 192 Кбит/сек
Каналы : 2 канала
Расположение каналов : Front: L R
Частота : 48,0 КГц
Битовая глубина : 16 бит
Метод сжатия : С потерями
Размер потока : 151 Мбайт (1%)
Заголовок : MVO, Россия
Язык : Russian
Default : Нет
Forced : Нет
Аудио #6
Идентификатор : 7
Формат : AC-3
Формат/Информация : Audio Coding 3
Расширение режима : CM (complete main)
Параметр Endianness формата : Big
Идентификатор кодека : A_AC3
Продолжительность : 1 ч. 49 м.
Вид битрейта : Постоянный
Битрейт : 448 Кбит/сек
Каналы : 6 каналов
Расположение каналов : Front: L C R, Side: L R, LFE
Частота : 48,0 КГц
Битовая глубина : 16 бит
Метод сжатия : С потерями
Размер потока : 351 Мбайт (3%)
Заголовок : MVO, Премьер Видео Фильм / Киномания
Язык : Russian
Default : Нет
Forced : Нет
Аудио #7
Идентификатор : 8
Формат : DTS
Формат/Информация : Digital Theater Systems
Режим : 16
Параметр Endianness формата : Big
Идентификатор кодека : A_DTS
Продолжительность : 1 ч. 49 м.
Вид битрейта : Постоянный
Битрейт : 1509 Кбит/сек
Каналы : 6 каналов
Расположение каналов : Front: L C R, Side: L R, LFE
Частота : 48,0 КГц
Битовая глубина : 16 бит
Метод сжатия : С потерями
Размер потока : 1,16 Гбайт (10%)
Заголовок : VO, Яроцкий
Язык : Russian
Default : Нет
Forced : Нет
Аудио #8
Идентификатор : 9
Формат : AC-3
Формат/Информация : Audio Coding 3
Расширение режима : CM (complete main)
Параметр Endianness формата : Big
Идентификатор кодека : A_AC3
Продолжительность : 1 ч. 49 м.
Вид битрейта : Постоянный
Битрейт : 448 Кбит/сек
Каналы : 6 каналов
Расположение каналов : Front: L C R, Side: L R, LFE
Частота : 48,0 КГц
Битовая глубина : 16 бит
Метод сжатия : С потерями
Размер потока : 351 Мбайт (3%)
Заголовок : VO, Гаврилов
Язык : Russian
Default : Нет
Forced : Нет
Аудио #9
Идентификатор : 10
Формат : AC-3
Формат/Информация : Audio Coding 3
Расширение режима : CM (complete main)
Параметр Endianness формата : Big
Идентификатор кодека : A_AC3
Продолжительность : 1 ч. 49 м.
Вид битрейта : Постоянный
Битрейт : 448 Кбит/сек
Каналы : 6 каналов
Расположение каналов : Front: L C R, Side: L R, LFE
Частота : 48,0 КГц
Битовая глубина : 16 бит
Метод сжатия : С потерями
Размер потока : 351 Мбайт (3%)
Заголовок : VO, Горчаков
Язык : Russian
Default : Нет
Forced : Нет
Аудио #10
Идентификатор : 11
Формат : AC-3
Формат/Информация : Audio Coding 3
Расширение режима : CM (complete main)
Параметр Endianness формата : Big
Идентификатор кодека : A_AC3
Продолжительность : 1 ч. 49 м.
Вид битрейта : Постоянный
Битрейт : 448 Кбит/сек
Каналы : 6 каналов
Расположение каналов : Front: L C R, Side: L R, LFE
Частота : 48,0 КГц
Битовая глубина : 16 бит
Метод сжатия : С потерями
Размер потока : 351 Мбайт (3%)
Заголовок : VO, Живов
Язык : Russian
Default : Нет
Forced : Нет
Аудио #11
Идентификатор : 12
Формат : AC-3
Формат/Информация : Audio Coding 3
Расширение режима : CM (complete main)
Параметр Endianness формата : Big
Идентификатор кодека : A_AC3
Продолжительность : 1 ч. 49 м.
Вид битрейта : Постоянный
Битрейт : 448 Кбит/сек
Каналы : 6 каналов
Расположение каналов : Front: L C R, Side: L R, LFE
Частота : 48,0 КГц
Битовая глубина : 16 бит
Метод сжатия : С потерями
Размер потока : 351 Мбайт (3%)
Заголовок : VO, Михалёв
Язык : Russian
Default : Нет
Forced : Нет
Аудио #12
Идентификатор : 13
Формат : AC-3
Формат/Информация : Audio Coding 3
Расширение режима : CM (complete main)
Параметр Endianness формата : Big
Идентификатор кодека : A_AC3
Продолжительность : 1 ч. 49 м.
Вид битрейта : Постоянный
Битрейт : 448 Кбит/сек
Каналы : 6 каналов
Расположение каналов : Front: L C R, Side: L R, LFE
Частота : 48,0 КГц
Битовая глубина : 16 бит
Метод сжатия : С потерями
Размер потока : 351 Мбайт (3%)
Заголовок : VO, Володарский
Язык : Russian
Default : Нет
Forced : Нет
Аудио #13
Идентификатор : 14
Формат : AC-3
Формат/Информация : Audio Coding 3
Расширение режима : CM (complete main)
Параметр Endianness формата : Big
Идентификатор кодека : A_AC3
Продолжительность : 1 ч. 49 м.
Вид битрейта : Постоянный
Битрейт : 448 Кбит/сек
Каналы : 6 каналов
Расположение каналов : Front: L C R, Side: L R, LFE
Частота : 48,0 КГц
Битовая глубина : 16 бит
Метод сжатия : С потерями
Размер потока : 351 Мбайт (3%)
Заголовок : VO, Либергал
Язык : Russian
Default : Нет
Forced : Нет
Аудио #14
Идентификатор : 15
Формат : DTS
Формат/Информация : Digital Theater Systems
Режим : 16
Параметр Endianness формата : Big
Идентификатор кодека : A_DTS
Продолжительность : 1 ч. 49 м.
Вид битрейта : Постоянный
Битрейт : 1509 Кбит/сек
Каналы : 6 каналов
Расположение каналов : Front: L C R, Side: L R, LFE
Частота : 48,0 КГц
Битовая глубина : 16 бит
Метод сжатия : С потерями
Размер потока : 1,16 Гбайт (10%)
Язык : English
Default : Нет
Forced : Нет
Текст #1
Идентификатор : 16
Формат : UTF-8
Идентификатор кодека : S_TEXT/UTF8
Идентификатор кодека/Информация : UTF-8 Plain Text
Язык : Russian
Default : Нет
Forced : Нет
Текст #2
Идентификатор : 17
Формат : UTF-8
Идентификатор кодека : S_TEXT/UTF8
Идентификатор кодека/Информация : UTF-8 Plain Text
Язык : English
Default : Нет
Forced : Нет
Меню
00:00:00.000 : en:Credits (Jingle Bell Rock)
00:04:26.099 : en:Two Morning Rituals
00:11:13.839 : en:Pine Needles and Pushers
00:14:53.601 : en:Moment of Truth
00:18:13.300 : en:"Rog, meet your new partner."
00:23:05.008 : en:A Drug Deal Ignited
00:25:58.390 : en:"You owe me, Roger. Remember?"
00:28:36.047 : en:Saving a Suicide
00:36:45.786 : en:Checking Out an Estate
00:42:59.577 : en:An Evening with the Murtaughs
00:54:12.707 : en:Target Practice
00:57:39.205 : en:Questioning Alfred
01:03:44.237 : en:Sudden Death from the Sky
01:08:10.294 : en:Incident on a Rainy Night
01:10:25.930 : en:Kidnapping ("We're gonna get bloddy on this one.")
01:15:17.513 : en:Rendezvous on the Flats
01:23:47.522 : en:A Shocking Intervention
01:29:30.365 : en:Christmas on Hollywood Blvd.
01:36:55.476 : en:Murtaugh's House
01:38:54.929 : en:A Shot at the Title
01:43:03.010 : en:Joshua's Last Stand
01:43:48.222 : en:"Merry Christmas, Victoria Lynn."
01:44:45.904 : en:Too Old for a Yuletide Houseful; End Credits ("I'll Be Home for Christmas, Lethal)
-

_________________
Показать сообщения:    

Текущее время: Сегодня 19:22

Часовой пояс: GMT



Вы не можете начинать темы
Вы не можете отвечать на сообщения
Вы не можете редактировать свои сообщения
Вы не можете удалять свои сообщения
Вы не можете голосовать в опросах
Вы не можете прикреплять файлы к сообщениям
Вы не можете скачивать файлы