Важное объявление!
У Нас Все раздачи мультитрекерные, при нуле пиров в релизах, можете смело вставать на закачку!
 
Автор Сообщение

HUNTER

Стаж:
4 года 4 месяца
Сообщений:
56853

Репутация: 101

[+] [-]
Вне форума [Профиль] [ЛС]

Смертельная ловушка / Deathtrap
Страна: США
Жанр: комедия, детектив, триллер
Год выпуска: 1982
Продолжительность: 01:56:10
Перевод: Профессиональный (двухголосый закадровый)
Cубтитры: английские
Оригинальная аудиодорожка: английский
Режиссер: Сидни Люмет / Sidney Lumet
В ролях: Майкл Кейн, Кристофер Рив, Дайан Кэннон, Айрин Уорт, Генри Джонс, Джо Силвер, Тони ДиБенедетто, Аль Лебретон, Френсис Б. Кример мл., Стюарт Клейн
Описание: Переживающий одну за другой неудачи драматург Брул решается на убийство. Он приглашает к себе талантливого студента Клиффорда, чтобы, убив, присвоить его пьесу. Кажется, что план был продуман до мелочей, но реальная жизнь вносит в него решительные коррективы…

Доп. информация: за работу над дорогой благодарим Linger babe
Исходник: Deathtrap 1982 1080p Blu-ray Remux AVC DTS-HD MA 2.0 - KRaLiMaRKo
Тип релиза: BDRemux 1080p | sample
Контейнер: MKV
Видео: MPEG-4 AVC 1920x1080 (16:9), 23.976 fps, ~24.0 Mbps
Аудио #1: Russian AC3 2ch 48kHz 192Kbps | DVO
Аудио #2: English DTS-HD MA / 2.0 / 48 kHz / 1671 kbps / 24-bit (DTS Core: 2.0 / 48 kHz / 1509 kbps / 24-bit) | Original
Формат субтитров: softsub (SRT)
Главы: есть

MediaInfo

General
Complete name : E:\...\Deathtrap.1982.1080p.Remux.AVC.Rus.Eng.mkv
Format : Matroska
Format version : Version 2
File size : 21.0 GiB
Duration : 1h 56mn
Overall bit rate mode : Variable
Overall bit rate : 25.9 Mbps
Movie name : Deathtrap.1982.1080p.Remux.AVC.Rus.Eng
Encoded date : UTC 2014-01-24 18:34:14
Writing application : mkvmerge v6.5.0 ('Isn't she lovely') built on Oct 20 2013 12:50:05
Writing library : libebml v1.3.0 + libmatroska v1.4.1
Video
ID : 1
Format : AVC
Format/Info : Advanced Video Codec
Format profile : High@L4.1
Format settings, CABAC : Yes
Format settings, ReFrames : 3 frames
Codec ID : V_MPEG4/ISO/AVC
Duration : 1h 56mn
Bit rate mode : Variable
Bit rate : 23.6 Mbps
Maximum bit rate : 35.0 Mbps
Width : 1 920 pixels
Height : 1 080 pixels
Display aspect ratio : 16:9
Frame rate mode : Constant
Frame rate : 23.976 fps
Standard : NTSC
Color space : YUV
Chroma subsampling : 4:2:0
Bit depth : 8 bits
Scan type : Progressive
Bits/(Pixel*Frame) : 0.475
Stream size : 19.2 GiB (91%)
Title : Deathtrap (1982)
Language : English
Default : Yes
Forced : No
Color primaries : BT.709
Transfer characteristics : BT.709
Matrix coefficients : BT.709
Audio #1
ID : 2
Format : AC-3
Format/Info : Audio Coding 3
Mode extension : CM (complete main)
Format settings, Endianness : Big
Codec ID : A_AC3
Duration : 1h 56mn
Bit rate mode : Constant
Bit rate : 192 Kbps
Channel(s) : 2 channels
Channel positions : Front: L R
Sampling rate : 48.0 KHz
Bit depth : 16 bits
Compression mode : Lossy
Stream size : 160 MiB (1%)
Title : DVO
Language : Russian
Default : Yes
Forced : No
Audio #2
ID : 3
Format : DTS
Format/Info : Digital Theater Systems
Format profile : MA / Core
Codec ID : A_DTS
Duration : 1h 56mn
Bit rate mode : Variable
Bit rate : 1 558 Kbps / 1 510 Kbps
Channel(s) : 2 channels
Channel positions : Front: L R
Sampling rate : 48.0 KHz
Bit depth : 24 bits
Compression mode : Lossless / Lossy
Title : Original
Language : English
Default : No
Forced : No
Text
ID : 4
Format : UTF-8
Codec ID : S_TEXT/UTF8
Codec ID/Info : UTF-8 Plain Text
Language : English
Default : No
Forced : No
Menu
00:00:00.000 : en:00:00:00.000
00:01:34.761 : en:00:01:34.761
00:06:26.344 : en:00:06:26.344
00:09:48.046 : en:00:09:48.046
00:11:26.185 : en:00:11:26.185
00:15:02.193 : en:00:15:02.193
00:17:29.173 : en:00:17:29.173
00:21:48.265 : en:00:21:48.265
00:25:37.161 : en:00:25:37.161
00:29:17.756 : en:00:29:17.756
00:32:50.385 : en:00:32:50.385
00:36:25.475 : en:00:36:25.475
00:38:26.179 : en:00:38:26.179
00:40:35.391 : en:00:40:35.391
00:44:18.823 : en:00:44:18.823
00:46:50.933 : en:00:46:50.933
00:49:01.105 : en:00:49:01.105
00:52:55.089 : en:00:52:55.089
00:55:51.348 : en:00:55:51.348
00:58:13.490 : en:00:58:13.490
00:59:55.801 : en:00:59:55.801
01:04:12.390 : en:01:04:12.390
01:06:16.973 : en:01:06:16.973
01:11:40.713 : en:01:11:40.713
01:14:32.635 : en:01:14:32.635
01:16:36.842 : en:01:16:36.842
01:20:59.521 : en:01:20:59.521
01:23:29.046 : en:01:23:29.046
01:26:36.942 : en:01:26:36.942
01:30:08.194 : en:01:30:08.194
01:33:15.340 : en:01:33:15.340
01:36:41.796 : en:01:36:41.796
01:39:59.911 : en:01:39:59.911
01:43:24.949 : en:01:43:24.949
01:46:02.189 : en:01:46:02.189
01:49:39.198 : en:01:49:39.198
01:52:24.196 : en:01:52:24.196
01:54:04.254 : en:01:54:04.254

Скриншоты




_________________
Показать сообщения:    

Текущее время: Сегодня 13:54

Часовой пояс: GMT



Вы не можете начинать темы
Вы не можете отвечать на сообщения
Вы не можете редактировать свои сообщения
Вы не можете удалять свои сообщения
Вы не можете голосовать в опросах
Вы не можете прикреплять файлы к сообщениям
Вы не можете скачивать файлы
Наши партнеры: интернет магазин Ивановского трикотажа textilla.ru