Важное объявление!
У Нас Все раздачи мультитрекерные, при нуле пиров в релизах, можете смело вставать на закачку!
 
Автор Сообщение

HUNTER

Стаж:
4 года 4 месяца
Сообщений:
56798

Репутация: 101

[+] [-]
Вне форума [Профиль] [ЛС]

Смайлик- -Страна: Россия
Жанр: мелодрама
Год выпуска: 2014
Производство: «Продюсерская кинокомпания «Киномир»»
Продолжительность: 01:27:15
Оригинальная аудиодорожка: русский
Cубтитры: нет-Режиссер: Тамара Аленикова-В ролях:
Александра Лупашко, Антон Соколов (II), Татьяна Яковенко, Витас Эйзенах, Мария Поезжаева, Мария Бушмелёва,
Александр Ратников, Александр Чевычелов, Алексей Суренский, Ольга Хохлова, Валентина Светлова (II)-Описание:
Вы верите в любовь с первого взгляда в современном мире безумных скоростей и бесконечных СМС? Разные люди находят друг друга и знакомятся в социальных сетях. У каждого из них — своя устроенная жизнь, привычки, привязанности. Казалось бы, ничего не предвещает судьбоносных перемен… Что может поколебать этот устойчивый и привычный мир? Разве что, случайный смайлик на мониторе… И безумное предложение встретиться… Смайлик — величайшее изобретение нашего времени! «Смайлик» — три новеллы, три истории любви с непредсказуемой развязкой.-Возраст: 16+-Качество: HDTV (1080i)
Формат: TS
Видео кодек: AVC
Аудио кодек: AC3, MPEG Audio

Видео: AVC, 1920 х 1080 (16:9), 25,000 кадр/сек, 8 017 Кбит/сек, 0.155 bit/pixel
Аудио 1: AC3, 48000 Hz, 448 Kbps, 6 каналов
Аудио 2: MPEG Audio 2, 48000 Hz, 192 Kbps, 2 канала
-

MediaInfo

General
ID : 1 (0x1)
Complete name : D:\Раздачи\Смайлик HDTV (1080i)\Смайлик HDTV (1080i).ts
Format : MPEG-TS
File size : 5.56 GiB
Duration : 1h 27mn
Overall bit rate mode : Variable
Overall bit rate : 9 114 Kbps
Video
ID : 67 (0x43)
Menu ID : 1 (0x1)
Format : AVC
Format/Info : Advanced Video Codec
Format profile : Main@L4
Format settings, CABAC : Yes
Format settings, ReFrames : 3 frames
Codec ID : 27
Duration : 1h 27mn
Bit rate : 8 017 Kbps
Width : 1 920 pixels
Height : 1 080 pixels
Display aspect ratio : 16:9
Frame rate : 25.000 fps
Standard : Component
Color space : YUV
Chroma subsampling : 4:2:0
Bit depth : 8 bits
Scan type : Interlaced
Scan type, store method : Separated fields
Scan order : Top Field First
Bits/(Pixel*Frame) : 0.155
Stream size : 4.89 GiB (88%)
Color range : Limited
Color primaries : BT.709
Transfer characteristics : BT.709
Matrix coefficients : BT.709
Audio #1
ID : 68 (0x44)
Menu ID : 1 (0x1)
Format : AC-3
Format/Info : Audio Coding 3
Mode extension : CM (complete main)
Format settings, Endianness : Big
Codec ID : 129
Duration : 1h 27mn
Bit rate mode : Constant
Bit rate : 448 Kbps
Channel(s) : 6 channels
Channel positions : Front: L C R, Side: L R, LFE
Sampling rate : 48.0 KHz
Frame rate : 31.250 fps (1536 spf)
Compression mode : Lossy
Delay relative to video : -40ms
Stream size : 280 MiB (5%)
Language : Russian
Audio #2
ID : 69 (0x45)
Menu ID : 1 (0x1)
Format : MPEG Audio
Format version : Version 1
Format profile : Layer 2
Codec ID : 3
Duration : 1h 27mn
Bit rate mode : Constant
Bit rate : 192 Kbps
Channel(s) : 2 channels
Sampling rate : 48.0 KHz
Compression mode : Lossy
Delay relative to video : -40ms
Stream size : 120 MiB (2%)
Language : Russian

Скриншоты


-Раздаю до первых 5-ти скачавших, на раздачи не возвращаюсь...-

_________________
Показать сообщения:    

Текущее время: Сегодня 04:12

Часовой пояс: GMT



Вы не можете начинать темы
Вы не можете отвечать на сообщения
Вы не можете редактировать свои сообщения
Вы не можете удалять свои сообщения
Вы не можете голосовать в опросах
Вы не можете прикреплять файлы к сообщениям
Вы не можете скачивать файлы