Важное объявление!
У Нас Все раздачи мультитрекерные, при нуле пиров в релизах, можете смело вставать на закачку!
 
Автор Сообщение

HUNTER

Стаж:
4 года 4 месяца
Сообщений:
56755

Репутация: 101

[+] [-]
Вне форума [Профиль] [ЛС]

Случай в Окс-Боу / The Ox-Bow Incident
Страна: США
Жанр: драма, криминал, вестерн
Год выпуска: 1943
Продолжительность: 01:15:28
Перевод:
Профессиональный (многоголосый закадровый) SomeWax
Авторский (одноголосый закадровый) С. Визгунов
Cубтитры: английские
Оригинальная аудиодорожка: английский-Режиссер: Уильям Уэллмен / William A. Wellman
В ролях: Генри Фонда, Энтони Куинн, Дэна Эндрюс, Мэри Бет Хьюз, Уильям Эйт, Гарри Морган, Джейн Дарвелл, Мэтт Бриггс, Гарри Девенпорт
Описание: По одноимённому роману Уолтера ван Тилбурга Кларка.
1885 год. Двое бродяг, Гил Картер и Арт Крофт, заезжают в небольшой городок под названием Окс-Боу и становятся невольными участниками событий, происходящими в этом, на первый взгляд, тихом местечке.
Убит один из местных фермеров, его стадо похищено, и жители городка жаждут мести. Преступников находят довольно быстро, и толпа решает обойтись без шерифа — устроить суд Линча…
IMDb || КиноПоиск-Тип релиза: BDRip 720p [CRiSC]
Контейнер: MKV
Видео: H.264/AVC, 962x720 at 23.976 fps, ~8000 kbps
Аудио#1: Russian: 48 kHz, DTS, 2/0 (L,R) ch, 1510 kbps |Многоголосый закадровый, SomeWax| отсюда (thx AnryV)
Аудио#2: Russian: 48 kHz, AC3, 2/0 (L,R) ch, 192 kbps |Авторский закадровый, С.Визгунов| отсюда
Аудио#3: English: 48 kHz/16-bit, FLAC 2.0, 486 kbps
Формат субтитров: softsub (SRT)
Сэмпл

MediaInfo

Format : Matroska
Format version : Version 2
File size : 5.37 GiB
Duration : 1h 15mn
Overall bit rate mode : Variable
Overall bit rate : 10.2 Mbps
Encoded date : UTC 2012-12-26 02:45:28
Writing application : mkvmerge v5.0.1 ('Es ist Sommer') built on Nov 6 2011 16:23:40
Writing library : libebml v1.2.2 + libmatroska v1.3.0
Video
ID : 1
Format : AVC
Format/Info : Advanced Video Codec
Format profile : High@L4.1
Format settings, CABAC : Yes
Format settings, ReFrames : 11 frames
Codec ID : V_MPEG4/ISO/AVC
Duration : 1h 15mn
Nominal bit rate : 8 000 Kbps
Width : 962 pixels
Height : 720 pixels
Display aspect ratio : 4:3
Frame rate : 23.976 fps
Color space : YUV
Chroma subsampling : 4:2:0
Bit depth : 8 bits
Scan type : Progressive
Bits/(Pixel*Frame) : 0.482
Title : The Ox-Bow Incident (1943)-CRiSC
Writing library : x264 core 120 r2146 bcd41db
Encoding settings : cabac=1 / ref=11 / deblock=1:-3:-3 / analyse=0x3:0x133 / me=tesa / subme=11 / psy=1 / psy_rd=0.90:0.10 / mixed_ref=1 / me_range=24 / chroma_me=1 / trellis=2 / 8x8dct=1 / cqm=0 / deadzone=21,11 / fast_pskip=0 / chroma_qp_offset=-3 / threads=12 / sliced_threads=0 / nr=0 / decimate=0 / interlaced=0 / bluray_compat=0 / constrained_intra=0 / bframes=9 / b_pyramid=2 / b_adapt=2 / b_bias=0 / direct=3 / weightb=1 / open_gop=0 / weightp=2 / keyint=250 / keyint_min=23 / scenecut=40 / intra_refresh=0 / rc_lookahead=40 / rc=2pass / mbtree=0 / bitrate=8000 / ratetol=1.0 / qcomp=0.60 / qpmin=0 / qpmax=69 / qpstep=4 / cplxblur=20.0 / qblur=0.5 / vbv_maxrate=50000 / vbv_bufsize=62500 / nal_hrd=none / ip_ratio=1.40 / pb_ratio=1.30 / aq=1:0.70
Language : English
Default : Yes
Forced : No
Color primaries : BT.709-5, BT.1361, IEC 61966-2-4, SMPTE RP177
Transfer characteristics : BT.709-5, BT.1361
Matrix coefficients : BT.709-5, BT.1361, IEC 61966-2-4 709, SMPTE RP177
Audio #1
ID : 2
Format : DTS
Format/Info : Digital Theater Systems
Codec ID : A_DTS
Duration : 1h 15mn
Bit rate mode : Constant
Bit rate : 1 510 Kbps
Channel(s) : 2 channels
Channel positions : Front: L R
Sampling rate : 48.0 KHz
Bit depth : 16 bits
Compression mode : Lossy
Stream size : 815 MiB (15%)
Title : MVO |SomeWax|
Language : Russian
Default : Yes
Forced : No
Audio #2
ID : 3
Format : AC-3
Format/Info : Audio Coding 3
Format profile : Dolby Digital
Mode extension : CM (complete main)
Codec ID : A_AC3
Duration : 1h 15mn
Bit rate mode : Constant
Bit rate : 192 Kbps
Channel(s) : 2 channels
Channel positions : Front: L R
Sampling rate : 48.0 KHz
Bit depth : 16 bits
Compression mode : Lossy
Stream size : 104 MiB (2%)
Title : AVO |С.Визгунов|
Language : Russian
Default : No
Forced : No
Audio #3
ID : 4
Format : FLAC
Format/Info : Free Lossless Audio Codec
Codec ID : A_FLAC
Duration : 1h 15mn
Bit rate mode : Variable
Channel(s) : 2 channels
Sampling rate : 48.0 KHz
Bit depth : 16 bits
Writing library : libFLAC 1.2.1 (UTC 2007-09-17)
Language : English
Default : No
Forced : No
Text
ID : 5
Format : UTF-8
Codec ID : S_TEXT/UTF8
Codec ID/Info : UTF-8 Plain Text
Language : English
Default : No
Forced : No
Menu
00:00:00.000 : en:00:00:00.000
00:07:23.068 : en:00:07:23.068
00:15:51.033 : en:00:15:51.033
00:23:30.492 : en:00:23:30.492
00:32:46.506 : en:00:32:46.506
00:39:04.884 : en:00:39:04.884
00:46:51.434 : en:00:46:51.434
00:53:28.330 : en:00:53:28.330
01:01:36.526 : en:01:01:36.526
01:08:10.628 : en:01:08:10.628

Скриншоты

CRiSC vs Source Screenshots

_________________
Показать сообщения:    

Текущее время: Сегодня 15:38

Часовой пояс: GMT



Вы не можете начинать темы
Вы не можете отвечать на сообщения
Вы не можете редактировать свои сообщения
Вы не можете удалять свои сообщения
Вы не можете голосовать в опросах
Вы не можете прикреплять файлы к сообщениям
Вы не можете скачивать файлы