Важное объявление!
У Нас Все раздачи мультитрекерные, при нуле пиров в релизах, можете смело вставать на закачку!
 
Автор Сообщение

HUNTER

Стаж:
4 года 4 месяца
Сообщений:
56842

Репутация: 101

[+] [-]
Вне форума [Профиль] [ЛС]

Случай в квадрате 36-80
Страна: СССР
Студия: Мосфильм
Жанр: Приключения, Военный
Год выпуска: 1982
Продолжительность: 1:09:24
Перевод: Не требуется
Cубтитры: нет
Оригинальная аудиодорожка: русский
Режиссер: Михаил Туманишвили
В ролях: Борис Щербаков, Михай (Михаил) Волонтир, Анатолий Кузнецов, Владимир Седов, Омар Волмер, Паул Буткевич, Витаутас Томкус, Ивар Калныньш
Описание: События происходят во времена холодной войны в 1980-е годы. Военно-морской флот СССР проводит боевые учения в Атлантическом океане. Экипаж воздушного танкера майора Волка выполняет обычную задачу по дозаправке самолётов-разведчиков в районе учений. В штаб советского командования поступает информация, что недалеко от места учений, в квадрате 36-80, потерпела аварию американская подводная лодка сил НАТО с крылатыми ракетами на борту. Неисправность в атомном реакторе грозит катастрофой. Самостоятельно экипаж не может исправить поломку и посылает сигнал бедствия. Советские войска оказываются ближе, чем американцы, однако, для того, чтобы доставить команду спасателей к подводной лодке, необходимо, чтобы самолёт майора Волка отдал всё своё топливо самолёту спасателей…
Автор рипа:
Сэмпл: https://yadi.sk/i/QCOLH1JCtyWWU
Тип релиза: HDTVRip
Контейнер: MKV
Видео: MPEG-4 AVC Video 5000 Kbps 1280x736 / 25 fps / 16:9 / High Profile 4.1
Аудио: Русский / AC3 / 48 KHz / 2.0 ch / 384 Kbps

MediaInfo

Случай в квадрате 36-80.HDTVRip 720p.(1982).mkv
Формат : Matroska
Версия формата : Version 2
Размер файла : 2,61 Гбайт
Продолжительность : 1 ч. 9 м.
Общий поток : 5380 Кбит/сек
Дата кодирования : UTC 2016-08-06 16:31:53
Программа кодирования : mkvmerge v7.0.0 ('Where We Going') 32bit built on Jun 9 2014 15:08:34
Библиотека кодирования : libebml v1.3.0 + libmatroska v1.4.1
DURATION : 01:09:24.384000000
NUMBER_OF_FRAMES : 130137
NUMBER_OF_BYTES : 199890432
_STATISTICS_WRITING_APP : mkvmerge v7.0.0 ('Where We Going') 32bit built on Jun 9 2014 15:08:34
_STATISTICS_WRITING_DATE_UTC : 2016-08-06 16:31:53
_STATISTICS_TAGS : BPS DURATION NUMBER_OF_FRAMES NUMBER_OF_BYTES
Видео
Идентификатор : 1
Формат : AVC
Формат/Информация : Advanced Video Codec
Профиль формата : High@L4.1
Параметр CABAC формата : Да
Параметр ReFrames формата : 5 кадров
Идентификатор кодека : V_MPEG4/ISO/AVC
Продолжительность : 1 ч. 9 м.
Битрейт : 5000 Кбит/сек
Ширина : 1280 пикселей
Высота : 736 пикселей
Соотношение сторон : 1,739
Режим частоты кадров : Постоянный
Частота кадров : 25,000 кадров/сек
Цветовое пространство : YUV
Субдискретизация насыщенности : 4:2:0
Битовая глубина : 8 бит
Тип развёртки : Прогрессивная
Бит/(Пиксели*Кадры) : 0.212
Размер потока : 2,37 Гбайт (91%)
Библиотека кодирования : x264 core 146 r2538 121396c
Настройки программы : cabac=1 / ref=5 / deblock=1:-1:-1 / analyse=0x3:0x113 / me=umh / subme=8 / psy=1 / psy_rd=1.00:0.20 / mixed_ref=1 / me_range=16 / chroma_me=1 / trellis=1 / 8x8dct=1 / cqm=0 / deadzone=21,11 / fast_pskip=1 / chroma_qp_offset=-3 / threads=12 / lookahead_threads=2 / sliced_threads=0 / nr=0 / decimate=0 / interlaced=0 / bluray_compat=0 / constrained_intra=0 / bframes=3 / b_pyramid=2 / b_adapt=2 / b_bias=0 / direct=3 / weightb=1 / open_gop=0 / weightp=2 / keyint=250 / keyint_min=25 / scenecut=40 / intra_refresh=0 / rc_lookahead=50 / rc=2pass / mbtree=1 / bitrate=5000 / ratetol=1.0 / qcomp=0.60 / qpmin=0 / qpmax=69 / qpstep=4 / cplxblur=20.0 / qblur=0.5 / vbv_maxrate=14000 / vbv_bufsize=14000 / nal_hrd=none / filler=0 / ip_ratio=1.40 / aq=1:1.00
Default : Да
Forced : Нет
Аудио
Идентификатор : 2
Формат : AC-3
Формат/Информация : Audio Coding 3
Расширение режима : CM (complete main)
Параметр Endianness формата : Big
Идентификатор кодека : A_AC3
Продолжительность : 1 ч. 9 м.
Вид битрейта : Постоянный
Битрейт : 384 Кбит/сек
Каналы : 6 каналов
Расположение каналов : Front: L C R, Side: L R, LFE
Частота : 48,0 КГц
Битовая глубина : 16 бит
Метод сжатия : С потерями
Размер потока : 191 Мбайт (7%)
Default : Да
Forced : Нет

Скриншоты сравнения с чешским DVD

Рип этой раздачи
Чешский DVD___

_________________
Показать сообщения:    

Текущее время: Сегодня 13:20

Часовой пояс: GMT



Вы не можете начинать темы
Вы не можете отвечать на сообщения
Вы не можете редактировать свои сообщения
Вы не можете удалять свои сообщения
Вы не можете голосовать в опросах
Вы не можете прикреплять файлы к сообщениям
Вы не можете скачивать файлы