Важное объявление!
У Нас Все раздачи мультитрекерные, при нуле пиров в релизах, можете смело вставать на закачку!
 
Автор Сообщение

димитри37

Стаж:
3 года 8 месяцев
Сообщений:
1237

Репутация: 127

[+] [-]
Вне форума [Профиль] [ЛС]

Служили два товарища
Жанр: трагикомедия, драма
Год выпуска: 1968
Продолжительность: 01:33:00
Режиссер: Евгений Карелов
В ролях: Олег Янковский, Ролан Быков, Владимир Высоцкий, Ия Саввина, Анатолий Папанов, Николай Крючков, Петр Крылов, Б.Силантьев, Николай Бурляев, Алла Демидова, Ростислав Янковский, Роман Ткачук, Николай Дупак, Аполлон Ячницкий, Леонид Пирогов, Василий Фущич, Борис Баташев, Александр Толстых, Валерий Фрид, Борис Молодан, Валентина Березуцкая, Юозас Будрайтис, Николай Парфёнов, Вениамин Смехов, Владимир Евченко, Кирилл Замошкин, Вадим Шавров, Володя Семёнов, Анатолий Соболев, Вячеслав Березко, Василий Бадаев, Олег Михайлов, Саша Зуев, Владимир Токменин, Юрий Кузьменков, Татьяна Иваненко, Валентина Сперантова, Елизавета Кузюрина, Евгений Марков
Описание: 1920-е годы, в России идет гражданская война. Войска барона Врангеля блокированы в Крыму. Красная Армия готовит наступление. К будённовцам попадает в качестве трофея французский киноаппарат системы Debrie «Parvo». С целью получения оперативной разведывательной информации штаб армии решает использовать его для аэросъемки Перекопского укрепрайона. Бывший студент, фотограф, а ныне - доброволец, солдат Андрей Некрасов назначается кинооператором. Он приступает к выполнению боевого задания вместе с бывшим командиром роты (разжалованным в рядовые за самосуд) Иваном Карякиным, бдительно опекающим беспомощного и, по его мнению, не вполне надежного идеологически "фотографа"...
Доп. информация:
Сценарий: Юлий Дунский, Валерий Фрид
Операторы: Михаил Ардабьевский, Виктор Белокопытов
Художники: Борис Царев, Лев Семёнов
Композитор: Евгений Птичкин
Ограничения на просмотр: для любой зрительской аудитории

Афиши

Рецензия

"Фильм снимался, когда белое движение называли не иначе, как «белогвардейщиной», а Красную Армию — не иначе, как «непобедимой и легендарной». И снимать надо было обязательно так, согласно линии партии. Однако, фильм «Служили два товарища» можно смотреть до сих пор - и не без удовольствия. Ему повезло. Его делали хитрые люди. Рано умерший (в 45 лет, от разрыва сердца) режиссер Евгений Карелов всегда имел большое чувство юмора. Сценаристы Юлий Дунский и Валерий Фрид знали «линию партии» назубок: имели богатый жизненный опыт после пребывания в лагере на Колыме (обвинялись в покушении на Сталина). Так что не во всём, но во многом этой компании удалось почти невозможное — удалось обмануть начальство. Фильм получился вроде бы «правильный», не подкопаешься. И про персонаж Высоцкого критики так и писали — «махровый враг», а про персонажей Ролана Быкова и Олега Янковского — «рабочая косточка» и «верный боец революции». На фронтах гражданской войны произошла классовая смычка «верного бойца революции», красного кинооператора с «рабочей косточкой», старослужащим. Они приключения разные пережили, песню спели, а потом «махровый враг», отступающий оптимист, взял и разрядил оружие наугад. И попал. А потом застрелил коня, отплывая в Константинополь... Только Высоцкий на этой почве — не враг ни при какой погоде. Только Быков с Янковским сыграли самих себя. Янковский, к примеру, так и ходил на съемках за Быковым, молча и удивленно. Ведь у него, "зеленого" провинциала, это был только второй опыт в кинематографе.
Обмануть начальство непросто. Надо вкалывать. Вкалывать одному за тех троих, которые не обманут начальство никогда. Надо построить аэроплан по старым чертежам. И чтоб летал. Надо дать герою кинокамеру, которой снимали как раз в 1920-м году. И чтоб крутилась..."
Катя Тарханова

Интересные факты

  • Сценаристы использовали фильм для поиска своих бывших солагерников. К примеру, герою Владимира Высоцкого были присвоены имя, отчество, фамилия и даже воинское звание реального человека - поручика (лейтенанта) Александра Никитича Брусенцова.
  • Образ Семёна Марковича - доктора, читающего красноармейцам лекцию в стихах, - списан с отца сценариста, Семёна Марковича Фрида.
  • В съемках принимали участие войска Одесского военного округа.

О звуке и рассинхроне

Аудиодорожки, в соответствиии с правилами, оставлены в битрейте цифрового исходника - скопированы с исходного DVD, выпущенного "Крупным планом", без перекодирования.
Однако, в исходном DVD есть значительный рассинхрон аудио и видео.
Чтобы устранить его в рипе и избежать ситуации, описанной пользователем вот здесь, задержка была произведена не в VirtualDubMod, а при помощи delaycut v.1.3.1.0 в обеих звуковых дорожках.
Качество видео: DVDRip
Формат видео: AVI
Видео: 720x304 (2.35:1), 25 fps, XviD 64, 2400 kbps avg, 0.44 bit/pixel
Аудио 1: 48 kHz, AC3 Dolby Digital, 3/2 (L,C,R,l,r) + LFE ch, 448 kbps
Аудио 2: 48 kHz, AC3 Dolby Digital, 1/0 (C) ch, 448 kbps

MI

Полное имя : Sluzhili dva tovarishcha.avi
Формат : AVI
Формат/Информация : Audio Video Interleave
Профиль формата : OpenDML
Размер файла : 2,15 Гбайт
Продолжительность : 1 ч. 33 м.
Общий поток : 3314 Кбит/сек
Программа кодирования : VirtualDubMod 1.5.10.3 (build 2550/release)
Библиотека кодирования : VirtualDubMod build 2550/release
Видео
Идентификатор : 0
Формат : MPEG-4 Visual
Профиль формата : Advanced Simple@L5
Параметр BVOP формата : 2
Параметр QPel формата : Нет
Параметр GMC формата : Без точки перехода
Параметр матрицы формата : Выборочная
Идентификатор кодека : XVID
Идентификатор кодека/Подсказка : XviD
Продолжительность : 1 ч. 33 м.
Битрейт : 2400 Кбит/сек
Ширина : 720 пикселей
Высота : 304 пикселя
Соотношение сторон : 2,35:1
Частота кадров : 25,000 кадров/сек
Цветовое пространство : YUV
Субдискретизация насыщенности : 4:2:0
Битовая глубина : 8 бит
Тип развёртки : Прогрессивная
Метод сжатия : С потерями
Бит/(Пиксели*Кадры) : 0.439
Размер потока : 1,56 Гбайт (72%)
Библиотека кодирования : XviD 64
Аудио #1
Идентификатор : 1
Формат : AC-3
Формат/Информация : Audio Coding 3
Расширение режима : CM (complete main)
Параметр Endianness формата : Big
Идентификатор кодека : 2000
Продолжительность : 1 ч. 32 м.
Вид битрейта : Постоянный
Битрейт : 448 Кбит/сек
Каналы : 6 каналов
Расположение каналов : Front: L C R, Side: L R, LFE
Частота : 48,0 КГц
Битовая глубина : 16 бит
Метод сжатия : С потерями
Размер потока : 298 Мбайт (14%)
Выравнивание : Разделение по промежуткам
Продолжительность промежутка : 40 мс. (1,00 видеокадр)
Время предзагрузки промежутка : 500 мс.
Аудио #2
Идентификатор : 2
Формат : AC-3
Формат/Информация : Audio Coding 3
Расширение режима : CM (complete main)
Параметр Endianness формата : Big
Идентификатор кодека : 2000
Продолжительность : 1 ч. 32 м.
Вид битрейта : Постоянный
Битрейт : 448 Кбит/сек
Каналы : 1 канал
Расположение каналов : Front: C
Частота : 48,0 КГц
Битовая глубина : 16 бит
Метод сжатия : С потерями
Размер потока : 298 Мбайт (14%)
Выравнивание : Разделение по промежуткам
Продолжительность промежутка : 40 мс. (1,00 видеокадр)
Время предзагрузки промежутка : 500 мс.
Показать сообщения:    

Текущее время: Сегодня 16:02

Часовой пояс: GMT



Вы не можете начинать темы
Вы не можете отвечать на сообщения
Вы не можете редактировать свои сообщения
Вы не можете удалять свои сообщения
Вы не можете голосовать в опросах
Вы не можете прикреплять файлы к сообщениям
Вы не можете скачивать файлы