Важное объявление!
У Нас Все раздачи мультитрекерные, при нуле пиров в релизах, можете смело вставать на закачку!
 
Автор Сообщение

HUNTER

Стаж:
4 года 4 месяца
Сообщений:
56790

Репутация: 101

[+] [-]
Вне форума [Профиль] [ЛС]

Слендер / Always Watching: A Marble Hornets Story
Страна: США
Студия: Bellevue Productions, Mosaic
Жанр: ужасы
Год выпуска: 2015
Продолжительность: 01:31:52
Перевод: Профессиональный (дублированный) iTunes
Cубтитры: английские
Оригинальная аудиодорожка: английский
Режиссер: Джеймс Моран / James Moran
В ролях: Александра Холден, Александра Брекенридж, Даг Джонс, Джейк Макдорман, Крис Маркетт, Рик Отто, Грэхэм Кларк, Блэр Бомар, Майкл Бунин, Синтия Марелл
Описание: Съемочная группа, готовящая сюжет про исчезнувшую семью, обнаруживает коробку кассет со свидетельствами появления Слендера — страшного существа, которое можно увидеть только через объектив видеокамеры. Посмотрев пленки, они навлекают на себя ужасное проклятье: их начинает преследовать сам Слендер, от которого не спрятаться и не скрыться.

Исходник: Always Watching: A Marble Hornets Story 2015 1080p GER Blu-ray AVC DTS-HD MA 5.1-BDA
Тип релиза: BDRip 720p / Tonik
Контейнер: MKV
Видео: MPEG-4 AVC, 6712 Кбит/с, 1280x720, 24,000 fps
Аудио: Rus, AC3, 384 kb/s (6 ch), 48 kHz
Аудио 2: Eng, DTS, 1510 kb/s (6 ch), 48 kHz
Формат субтитров: softsub (SRT)

MediaInfo

x264 [info]: frame I:681 Avg QP:12.80 size:102502
x264 [info]: frame P:29601 Avg QP:14.48 size: 56726
x264 [info]: frame B:102015 Avg QP:16.02 size: 29362
Format : Matroska
Format version : Version 4 / Version 2
File size : 5.63 GiB
Duration : 1h 31mn
Overall bit rate : 8 780 Kbps
Movie name : Слендер. (Tonik)
Encoded date : UTC 2015-12-05 02:47:39
Writing application : mkvmerge v7.1.0 ('Good Love') 64bit built on Jul 27 2014 13:06:55
Writing library : libebml v1.3.0 + libmatroska v1.4.1
_STATISTICS_WRITING_APP : mkvmerge v7.1.0 ('Good Love') 64bit built on Jul 27 2014 13:06:55
_STATISTICS_WRITING_DATE_UTC : 2015-12-05 02:47:39
_STATISTICS_TAGS : BPS DURATION NUMBER_OF_FRAMES NUMBER_OF_BYTES
DURATION : 01:25:34.987000000
NUMBER_OF_FRAMES : 1122
NUMBER_OF_BYTES : 32809
Video
ID : 1
Format : AVC
Format/Info : Advanced Video Codec
Format profile : High@L4.1
Format settings, CABAC : Yes
Format settings, ReFrames : 9 frames
Codec ID : V_MPEG4/ISO/AVC
Duration : 1h 31mn
Bit rate : 6 712 Kbps
Width : 1 280 pixels
Height : 720 pixels
Display aspect ratio : 16:9
Frame rate mode : Constant
Frame rate : 24.000 fps
Color space : YUV
Chroma subsampling : 4:2:0
Bit depth : 8 bits
Scan type : Progressive
Bits/(Pixel*Frame) : 0.303
Stream size : 4.31 GiB (76%)
Title : Tonik
Writing library : x264 core 148 r2597 e86f3a1
Encoding settings : cabac=1 / ref=9 / deblock=1:-3:-3 / analyse=0x3:0x133 / me=umh / subme=11 / psy=1 / psy_rd=1.00:0.00 / mixed_ref=1 / me_range=32 / chroma_me=1 / trellis=2 / 8x8dct=1 / cqm=0 / deadzone=21,11 / fast_pskip=0 / chroma_qp_offset=-2 / threads=12 / lookahead_threads=3 / sliced_threads=0 / nr=0 / decimate=0 / interlaced=0 / bluray_compat=0 / constrained_intra=0 / bframes=10 / b_pyramid=2 / b_adapt=2 / b_bias=0 / direct=3 / weightb=1 / open_gop=0 / weightp=2 / keyint=250 / keyint_min=24 / scenecut=40 / intra_refresh=0 / rc=crf / mbtree=0 / crf=17.0 / qcomp=0.60 / qpmin=0 / qpmax=69 / qpstep=4 / ip_ratio=1.40 / pb_ratio=1.30 / aq=1:1.00
Language : English
Default : Yes
Forced : No
DURATION : 01:31:52.375000000
NUMBER_OF_FRAMES : 132297
NUMBER_OF_BYTES : 4744282536
_STATISTICS_WRITING_APP : mkvmerge v7.1.0 ('Good Love') 64bit built on Jul 27 2014 13:06:55
_STATISTICS_WRITING_DATE_UTC : 2015-12-05 02:47:39
_STATISTICS_TAGS : BPS DURATION NUMBER_OF_FRAMES NUMBER_OF_BYTES
Audio #1
ID : 2
Format : AC-3
Format/Info : Audio Coding 3
Mode extension : CM (complete main)
Format settings, Endianness : Big
Codec ID : A_AC3
Duration : 1h 31mn
Bit rate mode : Constant
Bit rate : 384 Kbps
Channel(s) : 6 channels
Channel positions : Front: L C R, Side: L R, LFE
Sampling rate : 48.0 KHz
Bit depth : 16 bits
Compression mode : Lossy
Stream size : 252 MiB (4%)
Title : iTunes
Language : Russian
Default : Yes
Forced : No
Audio #2
ID : 3
Format : DTS
Format/Info : Digital Theater Systems
Mode : 16
Format settings, Endianness : Big
Codec ID : A_DTS
Duration : 1h 31mn
Bit rate mode : Constant
Bit rate : 1 509 Kbps
Channel(s) : 6 channels
Channel positions : Front: L C R, Side: L R, LFE
Sampling rate : 48.0 KHz
Bit depth : 24 bits
Compression mode : Lossy
Stream size : 992 MiB (17%)
Language : English
Default : No
Forced : No
Text
ID : 4
Format : UTF-8
Codec ID : S_TEXT/UTF8
Codec ID/Info : UTF-8 Plain Text
Language : English
Default : No
Forced : No
Menu
00:00:00.000 : en:00:00:00.000
00:09:19.500 : en:00:09:19.500
00:18:10.875 : en:00:18:10.875
00:27:13.458 : en:00:27:13.458
00:39:15.917 : en:00:39:15.917
00:48:46.042 : en:00:48:46.042
00:58:42.167 : en:00:58:42.167
01:07:57.208 : en:01:07:57.208
01:17:56.583 : en:01:17:56.583
01:25:58.167 : en:01:25:58.167

Скриншоты


_________________
Показать сообщения:    

Текущее время: Сегодня 11:23

Часовой пояс: GMT



Вы не можете начинать темы
Вы не можете отвечать на сообщения
Вы не можете редактировать свои сообщения
Вы не можете удалять свои сообщения
Вы не можете голосовать в опросах
Вы не можете прикреплять файлы к сообщениям
Вы не можете скачивать файлы