Важное объявление!
У Нас Все раздачи мультитрекерные, при нуле пиров в релизах, можете смело вставать на закачку!
 
Автор Сообщение

HUNTER

Стаж:
4 года 4 месяца
Сообщений:
56798

Репутация: 101

[+] [-]
Вне форума [Профиль] [ЛС]

Сладкий рыцарь / Sugar Soldier / シュガー*ソルジャーСтрана: Япония
Выпуск: c 14.01.2014 по 28.01.2014
Жанр: романтика, комедия, сёдзё
Тип/Продолжительность: ТВ (3 эп.), 1 мин.
Снято по манге: Sugar Soldier
Автор оригинала: Сакай Маю-Субтитры:
  • русские, софтсаб, внешними файлами от Shojosei
    перевод: sys3x; редактура: Kasandra
Озвучка:
  • двухголосая (муж./жен.), внешними файлами от DemonOFmooN & MezIdA (AniFilm)
-Описание:
У Макото Кисараги есть старшая сестра, которую с детства считают красоткой. Но не вечно же прозябать в тени знаменитой сестры-модели, вот Макото и решила тоже выделиться. С первого же дня в старшей школе ей это и удалось. А всё благодаря симпатичному парню Ирие.-Информационные ссылки: World Art || AniDB || MAL
-Энкод: volta_john
Качество: WEBRip | Тип видео: Без хардсаба | Формат: MP4
Видео: 1920x1080, 23.976 f/s, H.264, 8 bits, 2 067 Kb/s
Аудио JAP: 44.1 KHz, AAC, 2 channels, 126 Kb/s
Аудио RUS: 48.0 KHz, AC3, 2 channels, 192 Kb/s
-

Подробные тех. данные

Общее
Полное имя : D:\[Flash-Ost]\Anime\Сладкий рыцарь [Sugar Soldier]\Sugar Soldier 1 (YT 1920x1080 x264 AAC).mp4
Формат : MPEG-4
Профиль формата : Base Media
Идентификатор кодека : isom
Размер файла : 21,0 Мбайт
Продолжительность : 1 м. 20 с.
Общий поток : 2196 Кбит/сек
Программа кодирования : Lavf55.12.100
Видео
Идентификатор : 1
Формат : AVC
Формат/Информация : Advanced Video Codec
Профиль формата : High@L4.0
Параметр CABAC формата : Да
Параметр ReFrames формата : 3 кадры
Параметры GOP формата : M=1, N=36
Идентификатор кодека : avc1
Идентификатор кодека/Информация : Advanced Video Coding
Продолжительность : 1 м. 19 с.
Вид битрейта : Переменный
Битрейт : 2067 Кбит/сек
Ширина : 1920 пикс.
Высота : 1080 пикс.
Соотношение сторон : 16:9
Режим частоты кадров : Постоянный
Частота кадров : 23,976 кадр/сек
Цветовое пространство : YUV
Подвыборка цветности : 4:2:0
Битовая глубина : 8 бит
Тип развёртки : Прогрессивная
Бит/(Пиксели*Кадры) : 0.042
Размер потока : 19,7 Мбайт (94%)
Аудио
Идентификатор : 2
Формат : AAC
Формат/Информация : Advanced Audio Codec
Профиль формата : LC
Идентификатор кодека : 40
Продолжительность : 1 м. 20 с.
Вид битрейта : Постоянный
Битрейт : 126 Кбит/сек
Канал(ы) : 2 канала(ов)
Расположение каналов : Front: L R
Частота : 44,1 КГц
Метод сжатия : С потерями
Размер потока : 1,20 Мбайт (6%)

Скриншоты


_________________
Показать сообщения:    

Текущее время: Сегодня 20:37

Часовой пояс: GMT



Вы не можете начинать темы
Вы не можете отвечать на сообщения
Вы не можете редактировать свои сообщения
Вы не можете удалять свои сообщения
Вы не можете голосовать в опросах
Вы не можете прикреплять файлы к сообщениям
Вы не можете скачивать файлы