Важное объявление!
У Нас Все раздачи мультитрекерные, при нуле пиров в релизах, можете смело вставать на закачку!
 
Автор Сообщение

HUNTER

Стаж:
4 года 4 месяца
Сообщений:
56842

Репутация: 101

[+] [-]
Вне форума [Профиль] [ЛС]

Скуби-Ду: Франкен-монстр / Scooby-Doo! Frankencreepy-
-
-
-
-- Страна: США
Жанр: мультфильм, триллер, семейный
Год выпуска: 2014
Продолжительность: 01:13:53
Перевод: Профессиональный (многоголосый закадровый)
Cубтитры: нет
Режиссер: Пол МакЭвой / Paul McEvoy
В ролях: Фрэнк Уэлкер, Минди Кон, Грэй ДеЛисл, Мэттью Лиллард, Дидрих Бадер, Ди Брэдли Бейкер, Эрик Бауза, Джефф Беннетт, Сьюзан Блэйксли, Кори Бертон
Описание: Компания друзей узнают, что их злобные враги, которых они так долго сажали в тюрьму, вышли и объединились, теперь им нужно скрыться на время. И вот, друзья снова в своем небольшом фургоне и на всех парах едут в Пенсильванию. Прибыв туда, они решаются остановиться в замке.. Но пока друзья думали о том, какой им план разработать по собственному спасению, Скуби и Шегги уже в новые неприятности влипли. Друзей ждет еще больше приключений в загадочном мрачном старинном замке.
Новые приключения в Пенсильвании ждут главных героев.
Например ведьма Велма, которая не на стороне добра, в городе есть загадочные существа. Время покажет, что проживать в замки не так уж и весело, ведь он с мистическими событиями. Переждав немного компания друзей не решаются больше оставаться в замке и уезжают на своем чудном фургоне.
Как всегда Скуби и его лучший друг Шегги нарываются в городе Пенсильвании на новые серьезные приключения, из которых выбираться всем, но самое важное остается для двух весельчаков - это их желудки. Фред и Дафни сражаются в пещере с преступником лицо, которого скрыто под маской. Призрак из прошлого который так умело сражался с Фредом замыслил уничтожить друзей в этом ему помогает ведьма из замка. Что же будет дальше с главными героями? Ответы рядом.

Качество видео: HDRip
Формат видео: AVI
Видео: 720x400 (1.80:1), 23.976 fps, XviD build 73 ~2400 kbps avg, 0.35 bit/pixel
Аудио: 48 kHz, AC3 Dolby Digital, 2/0 (L,R) ch, ~224.00 kbps avg

MediaInfo

Формат : AVI
Формат/Информация : Audio Video Interleave
Размер файла : 1,36 Гбайт
Продолжительность : 1 ч. 13 м.
Общий поток : 2633 Кбит/сек
Программа кодирования : VirtualDubMod 1.5.10.3 | www.virtualdub-fr.org || (build 2550/release)
Библиотека кодирования : VirtualDubMod build 2550/release
Видео
Идентификатор : 0
Формат : MPEG-4 Visual
Профиль формата : Advanced Simple@L5
Параметр BVOP формата : 1
Параметр QPel формата : Нет
Параметр GMC формата : Без точки перехода
Параметр матрицы формата : Default (MPEG)
Идентификатор кодека : XVID
Идентификатор кодека/Подсказка : XviD
Продолжительность : 1 ч. 13 м.
Битрейт : 2400 Кбит/сек
Ширина : 720 пикселей
Высота : 400 пикселей
Соотношение сторон : 16:9
Частота кадров : 23,976 кадра/сек
Цветовое пространство : YUV
Субдискретизация насыщенности : 4:2:0
Битовая глубина : 8 бит
Тип развёртки : Прогрессивная
Метод сжатия : С потерями
Бит/(Пиксели*Кадры) : 0.348
Размер потока : 1,24 Гбайт (91%)
Библиотека кодирования : XviD 73
Аудио
Идентификатор : 1
Формат : AC-3
Формат/Информация : Audio Coding 3
Расширение режима : CM (complete main)
Параметр Endianness формата : Big
Идентификатор кодека : 2000
Продолжительность : 1 ч. 13 м.
Вид битрейта : Постоянный
Битрейт : 224 Кбит/сек
Каналы : 2 канала
Расположение каналов : Front: L R
Частота : 48,0 КГц
Битовая глубина : 16 бит
Метод сжатия : С потерями
Размер потока : 118 Мбайт (9%)
Выравнивание : Разделение по промежуткам
Продолжительность промежутка : 42 мс. (1,00 видеокадр)
Время предзагрузки промежутка : 500 мс.

Скриншоты


_________________
Показать сообщения:    

Текущее время: Сегодня 09:43

Часовой пояс: GMT



Вы не можете начинать темы
Вы не можете отвечать на сообщения
Вы не можете редактировать свои сообщения
Вы не можете удалять свои сообщения
Вы не можете голосовать в опросах
Вы не можете прикреплять файлы к сообщениям
Вы не можете скачивать файлы