Важное объявление!
У Нас Все раздачи мультитрекерные, при нуле пиров в релизах, можете смело вставать на закачку!
 
Автор Сообщение

HUNTER

Стаж:
4 года 4 месяца
Сообщений:
56808

Репутация: 101

[+] [-]
Вне форума [Профиль] [ЛС]

Скуби-Ду: Франкен-монстр
Scooby-Doo! Frankencreepy
Год выпуска: 2014
Страна: США
Жанр: мультфильм, приключения, семейный
Продолжительность: 01:13:54
Перевод: Профессиональный (Многоголосый закадровый)
русские субтитры: есть-Режиссёр: Пол МакЭвой : Paul McEvoy-Роли озвучивали: Фрэнк Уэлкер, Минди Кон, Грэй Гриффин, Мэттью Лиллард, Дидрих Бадер, Ди Брэдли Бейкер, Эрик Бауза, Джефф Беннетт, Сьюзан Блэйксли, Кори Бертон-Описание: Компания друзей узнаёт, что их злобные враги, которых они так долго сажали в тюрьму, вышли и объединились, теперь им нужно скрыться на время. И вот, друзья снова в своем небольшом фургоне и на всех парах едут в Пенсильванию. Прибыв туда, они решаются остановиться в замке.. Но пока друзья думали о том, какой им план разработать по собственному спасению, Скуби и Шегги уже в новые неприятности влипли.- релиз: -- Работа со звуком xfiles
- Работа с BDRemux'ом -Azureus--Качество: BDRemux 1080p
Формат: MKV
Видео кодек: AVC
Аудио кодек: AC3 : DTS MA
Видео: 1920x1080 , 23,976 fps, ~19,7 Мbps avg, 0.396 bit/pixel
Аудио #1: [RUS] 48 kHz, AC3 Dolby Digital, 2/0 (L,R) ch, ~192 kbps
Аудио #2: [ENG] DTS-HD MA 5.1 / 48 kHz / 2251 kbps / 24-bit (DTS Core: 5.1 / 48 kHz / 1509 kbps / 24-bit)
субтитры: русские - yaroslav230596, английские
навигация по главам: 9 глав (не именных)

MediaInfo

Общее
Уникальный идентификатор : 251903871385964810693004420487241964441 (0xBD82EBC029D178FC85CD343057BE9B99)
Полное имя : D:\Im\Скуби-Ду Франкен-монстр\Scooby-Doo! Frankencreepy.2014.BDRemux 1080p.mkv
Формат : Matroska
Версия формата : Version 4 / Version 2
Размер файла : 11,3 Гбайт
Продолжительность : 1 ч. 13 м.
Режим общего битрейта : Переменный
Общий поток : 21,9 Мбит/сек
Название фильма : Scooby-Doo! Frankencreepy.2014.BDRemux 1080p -Azureus-
Дата кодирования : UTC 2015-06-17 10:01:45
Программа кодирования : mkvmerge v7.9.0 ('Birds') 32bit
Библиотека кодирования : libebml v1.3.1 + libmatroska v1.4.2
DURATION : 01:13:48.765000000
NUMBER_OF_FRAMES : 1158
NUMBER_OF_BYTES : 43917
_STATISTICS_WRITING_APP : mkvmerge v7.9.0 ('Birds') 32bit
_STATISTICS_WRITING_DATE_UTC : 2015-06-17 10:01:45
_STATISTICS_TAGS : BPS DURATION NUMBER_OF_FRAMES NUMBER_OF_BYTES
Видео
Идентификатор : 1
Формат : AVC
Формат/Информация : Advanced Video Codec
Профиль формата : High@L4.1
Параметр CABAC формата : Да
Параметр ReFrames формата : 2 кадра
Идентификатор кодека : V_MPEG4/ISO/AVC
Продолжительность : 1 ч. 13 м.
Вид битрейта : Переменный
Битрейт : 19,7 Мбит/сек
Ширина : 1920 пикселей
Высота : 1080 пикселей
Соотношение сторон : 16:9
Частота кадров : 23,976 кадра/сек
Цветовое пространство : YUV
Субдискретизация насыщенности : 4:2:0
Битовая глубина : 8 бит
Тип развёртки : Прогрессивная
Бит/(Пиксели*Кадры) : 0.396
Размер потока : 10,2 Гбайт (90%)
Язык : English
Default : Да
Forced : Нет
DURATION : 01:13:53.471000000
NUMBER_OF_FRAMES : 106297
NUMBER_OF_BYTES : 10759585561
_STATISTICS_WRITING_APP : mkvmerge v7.9.0 ('Birds') 32bit
_STATISTICS_WRITING_DATE_UTC : 2015-06-17 10:01:45
_STATISTICS_TAGS : BPS DURATION NUMBER_OF_FRAMES NUMBER_OF_BYTES
Аудио #1
Идентификатор : 2
Формат : AC-3
Формат/Информация : Audio Coding 3
Расширение режима : CM (complete main)
Идентификатор кодека : A_AC3
Продолжительность : 1 ч. 13 м.
Вид битрейта : Постоянный
Битрейт : 192 Кбит/сек
Каналы : 2 канала
Расположение каналов : Front: L R
Частота : 48,0 КГц
Битовая глубина : 16 бит
Метод сжатия : С потерями
Размер потока : 101 Мбайт (1%)
Заголовок : MVO
Язык : Russian
Default : Да
Forced : Нет
DURATION : 01:13:54.433000000
NUMBER_OF_FRAMES : 415728
NUMBER_OF_BYTES : 1247590312
_STATISTICS_WRITING_APP : mkvmerge v7.9.0 ('Birds') 32bit
_STATISTICS_WRITING_DATE_UTC : 2015-06-17 10:01:45
_STATISTICS_TAGS : BPS DURATION NUMBER_OF_FRAMES NUMBER_OF_BYTES
Аудио #2
Идентификатор : 3
Формат : DTS
Формат/Информация : Digital Theater Systems
Профиль формата : MA / Core
Идентификатор кодека : A_DTS
Продолжительность : 1 ч. 13 м.
Вид битрейта : Переменный
Битрейт : 1561 Кбит/сек / 1510 Кбит/сек
Каналы : 6 каналов
Расположение каналов : Front: L C R, Side: L R, LFE
Частота : 48,0 КГц
Битовая глубина : 16 бит
Метод сжатия : Без потерь / Lossy
Заголовок : ENG
Язык : English
Default : Нет
Forced : Нет
Текст #1
Идентификатор : 4
Формат : UTF-8
Идентификатор кодека : S_TEXT/UTF8
Идентификатор кодека/Информация : UTF-8 Plain Text
Заголовок : Rus Sub - yaroslav230596
Язык : Russian
Default : Нет
Forced : Нет
Текст #2
Идентификатор : 5
Формат : UTF-8
Идентификатор кодека : S_TEXT/UTF8
Идентификатор кодека/Информация : UTF-8 Plain Text
Заголовок : Eng Sub
Язык : English
Default : Нет
Forced : Нет
Текст #3
Идентификатор : 6
Формат : UTF-8
Идентификатор кодека : S_TEXT/UTF8
Идентификатор кодека/Информация : UTF-8 Plain Text
Заголовок : Eng Sub - SDH
Язык : English
Default : Нет
Forced : Нет
Меню
00:00:00.000 : en:Chapter 01
00:10:11.652 : en:Chapter 02
00:19:45.642 : en:Chapter 03
00:30:25.406 : en:Chapter 04
00:40:27.883 : en:Chapter 05
00:49:50.946 : en:Chapter 06
01:01:24.847 : en:Chapter 07
01:08:19.178 : en:Chapter 08
01:11:14.019 : en:Chapter 09
____________________________________________
Стою на раздаче до 5 дней.
Просьба скачавшим как можно дольше не покидать раздачу!
ВСЕМ ПРИЯТНОГО ПРОСМОТРА!_________________________________________

_________________
Показать сообщения:    

Текущее время: Сегодня 14:58

Часовой пояс: GMT



Вы не можете начинать темы
Вы не можете отвечать на сообщения
Вы не можете редактировать свои сообщения
Вы не можете удалять свои сообщения
Вы не можете голосовать в опросах
Вы не можете прикреплять файлы к сообщениям
Вы не можете скачивать файлы