Важное объявление!
У Нас Все раздачи мультитрекерные, при нуле пиров в релизах, можете смело вставать на закачку!
 
Автор Сообщение

HUNTER

Стаж:
4 года 4 месяца
Сообщений:
56798

Репутация: 101

[+] [-]
Вне форума [Профиль] [ЛС]

Скуби-Ду! Ужасные Праздники / Scooby-Doo! Haunted Holidays
Страна: США
Жанр: Ужасы, Детектив, Комедия
Продолжительность: 00:21:49
Год выпуска: 2012
Перевод 1: Профессиональный (двухголосый закадровый) - 31 Канал
Перевод 2: Любительский (одноголосый закадровый) - SerKuS aka [url=profile.php?mode=viewprofile&u=21216244]Shaggy-rocker[/url]
Русские субтитры: есть
Главы: есть, 5 шт-Режиссёр: Виктор Кук / Victor Cook
Описание: Рождественский специальный выпуск.
Скуби-Ду и команда участвуют в рождественском параде, где встречаются со Зловещим Снеговиком. Из-за чего всем грозит опасность.-Качество: HDTV 1080i
Формат: MKV
Видео: MPEG-4 AVC | 1920x1080 | 25 fps | 5 692 Kbps
Аудио 1: RUS | AC-3 | 48.0 kHz | 2 ch | 192 kbps | DVO 31 Канал
Аудио 2: RUS | AC-3 | 48.0 kHz | 2 ch | 192 kbps | VO SerKuS aka Shaggy-rocker
Аудио 3: ENG | AC-3 | 48.0 kHz | 2 ch | 384 kbps | Eng
Субтитры 1: Русские - перевод: yaroslav230596
Субтитры 2: Английские
Семпл
[url=tracker.php?f=1991&nm=Scooby+Doo+Haunted+Holidays]Ссылка на предыдущие и альтернативные раздачи[/url]-За запись DVO с 31 Канала благодарим [url=profile.php?mode=viewprofile&u=20741852]zzz666_31_rus[/url]. Дорога довольно-таки посредственного качества.

Подробные технические данные

Format : MatroskaFormat version : Version 4 / Version 2File size : 1.01 GiBDuration : 21mn 49sOverall bit rate : 6 593 KbpsMovie name : Scooby-Doo! Haunted HolidaysEncoded date : UTC 2016-08-27 08:40:57Writing application : mkvmerge v9.4.0 ('Knurl') 64bitWriting library : libebml v1.3.4 + libmatroska v1.4.5Attachements : cover.pngDURATION : 00:21:49.664000000NUMBER_OF_FRAMES : 40927NUMBER_OF_BYTES : 31431936_STATISTICS_WRITING_APP : mkvmerge v9.4.0 ('Knurl') 64bit_STATISTICS_WRITING_DATE_UT : 2016-08-27 08:40:57_STATISTICS_TAGS : BPS DURATION NUMBER_OF_FRAMES NUMBER_OF_BYTES
VideoID : 1Format : AVCFormat/Info : Advanced Video CodecFormat profile : Main@L4Format settings, CABAC : YesFormat settings, ReFrames : 4 framesFormat settings, GOP : M=3, N=30Codec ID : V_MPEG4/ISO/AVCDuration : 21mn 49sBit rate : 5 694 KbpsWidth : 1 920 pixelsHeight : 1 080 pixelsDisplay aspect ratio : 16:9Frame rate mode : ConstantFrame rate : 25.000 fpsColor space : YUVChroma subsampling : 4:2:0Bit depth : 8 bitsScan type : MBAFFScan order : Top Field FirstBits/(Pixel*Frame) : 0.110Stream size : 889 MiB (86%)Default : YesForced : No
Audio #1ID : 2Format : AC-3Format/Info : Audio Coding 3Mode extension : CM (complete main)Format settings, Endianness : BigCodec ID : A_AC3Duration : 21mn 49sBit rate mode : ConstantBit rate : 192 KbpsChannel(s) : 2 channelsChannel positions : Front: L RSampling rate : 48.0 KHzCompression mode : LossyStream size : 30.0 MiB (3%)Title : DVO 31 КаналLanguage : RussianDefault : YesForced : No
Audio #2ID : 3Format : AC-3Format/Info : Audio Coding 3Mode extension : CM (complete main)Format settings, Endianness : BigCodec ID : A_AC3Duration : 21mn 49sBit rate mode : ConstantBit rate : 192 KbpsChannel(s) : 2 channelsChannel positions : Front: L RSampling rate : 48.0 KHzCompression mode : LossyStream size : 30.0 MiB (3%)Title : VO SerKuS aka Shaggy-rockerLanguage : RussianDefault : NoForced : No
Audio #3ID : 4Format : AC-3Format/Info : Audio Coding 3Mode extension : CM (complete main)Format settings, Endianness : BigCodec ID : A_AC3Duration : 21mn 49sBit rate mode : ConstantBit rate : 384 KbpsChannel(s) : 2 channelsChannel positions : Front: L RSampling rate : 48.0 KHzCompression mode : LossyStream size : 60.0 MiB (6%)Language : EnglishDefault : NoForced : No
Text #1ID : 5Format : UTF-8Codec ID : S_TEXT/UTF8Codec ID/Info : UTF-8 Plain TextTitle : yaroslav230596Language : RussianDefault : NoForced : No
Text #2ID : 6Format : UTF-8Codec ID : S_TEXT/UTF8Codec ID/Info : UTF-8 Plain TextLanguage : EnglishDefault : NoForced : No
Menu00:00:00.000 : en:Chapter 0100:02:51.000 : en:Chapter 0200:07:20.000 : en:Chapter 0300:12:48.500 : en:Chapter 0400:21:16.000 : en:Chapter 05

_________________
Показать сообщения:    

Текущее время: Сегодня 22:32

Часовой пояс: GMT



Вы не можете начинать темы
Вы не можете отвечать на сообщения
Вы не можете редактировать свои сообщения
Вы не можете удалять свои сообщения
Вы не можете голосовать в опросах
Вы не можете прикреплять файлы к сообщениям
Вы не можете скачивать файлы