Важное объявление!
У Нас Все раздачи мультитрекерные, при нуле пиров в релизах, можете смело вставать на закачку!
 
Автор Сообщение

HUNTER

Стаж:
4 года 4 месяца
Сообщений:
56765

Репутация: 101

[+] [-]
Вне форума [Профиль] [ЛС]

Скуби-Ду! Тайна рестлмании
Scooby-Doo! WrestleMania Mystery
Год выпуска: 2014
Страна: США
Жанр: мультфильм, семейный
Продолжительность: 01:23:38
Перевод: Одноголосый закадровый
русские субтитры: есть-Режиссёр: Бен Джонс : Ben Jones
Роли озвучивали: Мэттью Лиллард, Джон Ди Маджио, Грэй ДеЛисл, Фрэнк Уэлкер, Пол Левески, Трэвис Уиллингэм, Глен Джейкобс, Майк Мизанин, Минди Кон, Винс МакМахон-Описание: Новый искрометный мультфильм «Скуби-Ду – Тайна рестлмании» опять готов порадовать своих преданных зрителей. Чем же так уникален очередной захватывающий эпизод мультфильма про очаровательную собаку Скуби-Ду? А тем, что именно в этой части Вас ждут очень увлекательные путешествия наших главных героев в логово рестлмании. Что же такое Рестмалния – это театральные бои на ринге, когда бойцы изображают драку, хотя на самом деле – это лишь одна большая постановка, в этих схватках почти нет ничего опасного. Будут ли они сами участвовать в постановочных боях или же все будет намного серьезнее? Как и все остальные части, эта не стала исключением, и все также приковывает своих зрителей к экранам. Конечно, этот мультфильм наиболее понравится тем, кто постоянно следит за Скуби-Ду и за тем, куда он постоянно попадает. В этом эпизоде будет много острых шуток и комичных ситуаций, в которые герои попадают почти каждую минуту. И поверьте – ваши ожидания себя обязательно оправдают, разве может кому-то не понравится очаровательный Скуби-Ду?- релиз: -Качество: WEB-DLRip - Yabrat
Формат: AVI
Видео кодек: XviD
Аудио кодек: MP3
Видео: 656x368 (1.78:1), 23.976 fps, XviD build 65 ~1108 kbps avg, 0.19 bit/pixel
Аудио: 48 kHz, MPEG Layer 3, 2 ch, ~128.00 kbps avg

MediaInfo

Format : AVI
Format/Info : Audio Video Interleave
File size : 746 MiB
Duration : 1h 23mn
Overall bit rate : 1 246 Kbps
Writing application : VirtualDubMod 1.5.10.3 | www.virtualdub-fr.org || (build 2550/release)
Writing library : VirtualDubMod build 2550/release
Video
ID : 0
Format : MPEG-4 Visual
Format profile : Advanced Simple@L5
Format settings, BVOP : 2
Format settings, QPel : No
Format settings, GMC : No warppoints
Format settings, Matrix : Custom
Codec ID : XVID
Codec ID/Hint : XviD
Duration : 1h 23mn
Bit rate : 1 109 Kbps
Width : 656 pixels
Height : 368 pixels
Display aspect ratio : 16:9
Frame rate : 23.976 fps
Color space : YUV
Chroma subsampling : 4:2:0
Bit depth : 8 bits
Scan type : Progressive
Compression mode : Lossy
Bits/(Pixel*Frame) : 0.192
Stream size : 663 MiB (89%)
Writing library : XviD 65
Audio
ID : 1
Format : MPEG Audio
Format version : Version 1
Format profile : Layer 3
Codec ID : 55
Codec ID/Hint : MP3
Duration : 1h 23mn
Bit rate mode : Constant
Bit rate : 128 Kbps
Channel count : 2 channels
Sampling rate : 48.0 KHz
Compression mode : Lossy
Stream size : 76.6 MiB (10%)
Alignment : Aligned on interleaves
Interleave, duration : 42 ms (1.00 video frame)
Interleave, preload duration : 504 ms
Writing library : LAME3.99r
Encoding settings : -m s -V 4 -q 2 -lowpass 17 -b 128

_________________
Показать сообщения:    

Текущее время: Сегодня 01:07

Часовой пояс: GMT



Вы не можете начинать темы
Вы не можете отвечать на сообщения
Вы не можете редактировать свои сообщения
Вы не можете удалять свои сообщения
Вы не можете голосовать в опросах
Вы не можете прикреплять файлы к сообщениям
Вы не можете скачивать файлы