Важное объявление!
У Нас Все раздачи мультитрекерные, при нуле пиров в релизах, можете смело вставать на закачку!
 
Автор Сообщение

HUNTER

Стаж:
4 года 4 месяца
Сообщений:
56798

Репутация: 101

[+] [-]
Вне форума [Профиль] [ЛС]

Скуби-Ду! Пираты на борту! / Scooby-Doo! Pirates Ahoy!-
Страна: США
Жанр: мультфильм, комедия, детектив, семейный
Год выпуска: 2006
Продолжительность: 01:10:46
Перевод: Профессиональный (полное дублирование)
Субтитры: Нет-Режиссер: Чак Шитз / Chuck Sheetz-Описание: О ужас! Скуби-Ду и его команда были до смерти напуганы, когда отправились в страшный круиз в одно из самых таинственных мест на земле - легендарный Бермудский треугольник! Друзей пугают на каждом шагу - то пришельцы, то ужасные Пираты-Призраки, которым нравится стрелять в круизные суда из пушек и топить их.
Дела становятся все хуже, когда Пираты-Призраки крадут родителей Фреда и превращают его маму в пирата. Если Скуби-Ду, Шегги и команда не разгадают эту морскую тайну, их могут сбросить за борт, и они станут следующими жертвами Треугольника!
-Рейтинг:
-Мировая премьера: 10 сентября 2006
Релиз на DVD: 14 июня 2009, «Юниверсал Пикчерс Рус»-Релиз: -Семпл-Качество: WEB-DLRip
Формат: AVI
Видео: 656x368 (1.78:1), 23.976 fps, XviD build 65 ~1331 kbps avg, 0.23 bit/pixel
Аудио: 48 kHz, MPEG Layer 3, 2 ch, ~128.00 kbps avg
Субтитры: Отсутствуют
-

MI

Format : AVIFormat/Info : Audio Video InterleaveFile size : 744 MiBDuration : 1h 10mnOverall bit rate : 1 469 KbpsWriting application : VirtualDubMod 1.5.10.3 | www.virtualdub-fr.org || (build 2550/release)Writing library : VirtualDubMod build 2550/release
VideoID : 0Format : MPEG-4 VisualFormat profile : Advanced Simple@L5Format settings, BVOP : 2Format settings, QPel : NoFormat settings, GMC : No warppointsFormat settings, Matrix : CustomCodec ID : XVIDCodec ID/Hint : XviDDuration : 1h 10mnBit rate : 1 332 KbpsWidth : 656 pixelsHeight : 368 pixelsDisplay aspect ratio : 16:9Frame rate : 23.976 fpsColor space : YUVChroma subsampling : 4:2:0Bit depth : 8 bitsScan type : ProgressiveCompression mode : LossyBits/(Pixel*Frame) : 0.230Stream size : 674 MiB (91%)Writing library : XviD 65
AudioID : 1Format : MPEG AudioFormat version : Version 1Format profile : Layer 3Codec ID : 55Codec ID/Hint : MP3Duration : 1h 10mnBit rate mode : ConstantBit rate : 128 KbpsChannel count : 2 channelsSampling rate : 48.0 KHzCompression mode : LossyStream size : 64.8 MiB (9%)Alignment : Aligned on interleavesInterleave, duration : 42 ms (1.00 video frame)Interleave, preload duration : 504 msWriting library : LAME3.99rEncoding settings : -m s -V 4 -q 2 -lowpass 17 -b 128
Все раздачи с полнометражными мультфильмами Скуби-Ду!

_________________
Показать сообщения:    

Текущее время: Сегодня 22:35

Часовой пояс: GMT



Вы не можете начинать темы
Вы не можете отвечать на сообщения
Вы не можете редактировать свои сообщения
Вы не можете удалять свои сообщения
Вы не можете голосовать в опросах
Вы не можете прикреплять файлы к сообщениям
Вы не можете скачивать файлы