Важное объявление!
У Нас Все раздачи мультитрекерные, при нуле пиров в релизах, можете смело вставать на закачку!
 
Автор Сообщение

HUNTER

Стаж:
4 года 4 месяца
Сообщений:
56720

Репутация: 101

[+] [-]
Вне форума [Профиль] [ЛС]

Скуби-Ду! Пираты на борту! / Scooby-Doo! Pirates Ahoy!-
Страна: США
Жанр: мультфильм, комедия, детектив, семейный
Год выпуска: 2006
Продолжительность: 01:10:46
Перевод: Профессиональный (полное дублирование)
Субтитры: Есть-Режиссер: Чак Шитз / Chuck Sheetz-Описание: О ужас! Скуби-Ду и его команда были до смерти напуганы, когда отправились в страшный круиз в одно из самых таинственных мест на земле - легендарный Бермудский треугольник! Друзей пугают на каждом шагу - то пришельцы, то ужасные Пираты-Призраки, которым нравится стрелять в круизные суда из пушек и топить их.
Дела становятся все хуже, когда Пираты-Призраки крадут родителей Фреда и превращают его маму в пирата. Если Скуби-Ду, Шегги и команда не разгадают эту морскую тайну, их могут сбросить за борт, и они станут следующими жертвами Треугольника!
-Рейтинг:
-Мировая премьера: 10 сентября 2006
Релиз на DVD: 14 июня 2009, «Юниверсал Пикчерс Рус»-Релиз: -Семпл-Качество: WEB-DLRip [Scooby-Doo.Pirates.Ahoy.2006.720p.WEB-DL.Rus.Eng.HDCLUB]
Формат: AVI
Видео: 720x400 (1.80:1), 23.976 fps, XviD build 65 ~2379 kbps avg, 0.34 bit/pixel
Аудио: 48 kHz, AC3 Dolby Digital, 2/0 (L,R) ch, ~192 kbps - Rus
Аудио 2: 48 kHz, AC3 Dolby Digital, 2/0 (L,R) ch, ~192 kbps - Eng
Субтитры: Русские (Полные, форсированные (Srt))
-

MI

Format : AVIFormat/Info : Audio Video InterleaveFile size : 1.37 GiBDuration : 1h 10mnOverall bit rate : 2 779 KbpsWriting application : VirtualDubMod 1.5.10.3 | www.virtualdub-fr.org || (build 2550/release)Writing library : VirtualDubMod build 2550/release
VideoID : 0Format : MPEG-4 VisualFormat profile : Advanced Simple@L5Format settings, BVOP : 2Format settings, QPel : NoFormat settings, GMC : No warppointsFormat settings, Matrix : CustomCodec ID : XVIDCodec ID/Hint : XviDDuration : 1h 10mnBit rate : 2 380 KbpsWidth : 720 pixelsHeight : 400 pixelsDisplay aspect ratio : 16:9Frame rate : 23.976 fpsColor space : YUVChroma subsampling : 4:2:0Bit depth : 8 bitsScan type : ProgressiveCompression mode : LossyBits/(Pixel*Frame) : 0.345Stream size : 1.18 GiB (86%)Writing library : XviD 65
Audio #1ID : 1Format : AC-3Format/Info : Audio Coding 3Mode extension : CM (complete main)Format settings, Endianness : BigCodec ID : 2000Duration : 1h 10mnBit rate mode : ConstantBit rate : 192 KbpsChannel count : 2 channelsChannel positions : Front: L RSampling rate : 48.0 KHzBit depth : 16 bitsCompression mode : LossyStream size : 97.2 MiB (7%)Alignment : Split accross interleavesInterleave, duration : 42 ms (1.00 video frame)Interleave, preload duration : 500 ms
Audio #2ID : 2Format : AC-3Format/Info : Audio Coding 3Mode extension : CM (complete main)Format settings, Endianness : BigCodec ID : 2000Duration : 1h 10mnBit rate mode : ConstantBit rate : 192 KbpsChannel count : 2 channelsChannel positions : Front: L RSampling rate : 48.0 KHzBit depth : 16 bitsCompression mode : LossyStream size : 97.2 MiB (7%)Alignment : Split accross interleavesInterleave, duration : 42 ms (1.00 video frame)Interleave, preload duration : 500 ms
Все раздачи с полнометражными мультфильмами Скуби-Ду!

_________________
Показать сообщения:    

Текущее время: Сегодня 06:21

Часовой пояс: GMT



Вы не можете начинать темы
Вы не можете отвечать на сообщения
Вы не можете редактировать свои сообщения
Вы не можете удалять свои сообщения
Вы не можете голосовать в опросах
Вы не можете прикреплять файлы к сообщениям
Вы не можете скачивать файлы