Важное объявление!
У Нас Все раздачи мультитрекерные, при нуле пиров в релизах, можете смело вставать на закачку!
 
Автор Сообщение

HUNTER

Стаж:
4 года 4 месяца
Сообщений:
56733

Репутация: 101

[+] [-]
Вне форума [Профиль] [ЛС]


Скуби-Ду и кибер-погоня
Scooby Doo and the Cyber chase
-

  • Год производства: 2001

  • Страна: USA

  • Жанр: Мультфильм

  • Продолжительность: 01:13:18

  • Перевод: Профессиональный (дублированный) «Пифагор»

  • Субтитры: Отсутствуют-
  • Режиссер: Джим Стенструм / Jim Stenstrum-
  • Описание: Гоняясь за фантомом вирусом Скуби-Ду и его друзья случайно попадают в видеоигру, основанную на их собственных приключениях. Преследуя нахала по десяти сложнейшим уровням, компания совершает путешествие от доисторического прошлого до космического будущего и даже сталкивается с ордой виртуальных страшилищ из их самых знаменитых историй!-
  • Качество видео: BDRip 1080p

  • Формат видео: mkv

  • Видео кодек: H264

  • Аудио кодек: AC3

  • Видео: 1920x1080 (16:9), 23.976 fps, 8 357 Kbps (0.160 bit/pixel)

  • Аудио: Русский, 48.0 kHz, AC3, 2 ch, 384 Kbps DUB | «Пифагор»-
  • Автор рипа: falco
-

Скриншоты

MediaInfo

Код: copyText_writeLink('this.parentNode.parentNode.nextSibling.nextSibling');
General
Unique ID : 189730862567896009515855263334711409149 (0x8EBCD5BFE61687CD9989938820AFB9FD)
Complete name : D:\Торенты\Scooby Doo and the Cyber Chase 2001.1080p.BDRip.falco.mkv
Format : Matroska
Format version : Version 2
File size : 4.28 GiB
Duration : 1h 13mn
Overall bit rate : 8 357 Kbps
Encoded date : UTC 2013-07-14 08:56:25
Writing application : mkvmerge v6.1.0 ('Old Devil') built on Mar 4 2013 09:10:42
Writing library : libebml v1.3.0 + libmatroska v1.4.0
Video
ID : 1
Format : AVC
Format/Info : Advanced Video Codec
Format profile : [url=mailto:High@L5.0]High@L5.0[/url]
Format settings, CABAC : Yes
Format settings, ReFrames : 11 frames
Codec ID : V_MPEG4/ISO/AVC
Duration : 1h 13mn
Bit rate : 7 973 Kbps
Width : 1 920 pixels
Height : 1 080 pixels
Display aspect ratio : 16:9
Frame rate : 23.976 fps
Color space : YUV
Chroma subsampling : 4:2:0
Bit depth : 8 bits
Scan type : Progressive
Bits/(Pixel*Frame) : 0.160
Stream size : 4.00 GiB (93%)
Writing library : x264 core 130 r2273 b3065e6
Encoding settings : cabac=1 / ref=11 / deblock=1:-2:-1 / analyse=0x3:0x133 / me=umh / subme=10 / psy=1 / psy_rd=1.00:0.20 / mixed_ref=1 / me_range=24 / chroma_me=1 / trellis=2 / 8x8dct=1 / cqm=0 / deadzone=21,11 / fast_pskip=0 / chroma_qp_offset=-3 / threads=6 / lookahead_threads=1 / sliced_threads=0 / nr=0 / decimate=0 / interlaced=0 / bluray_compat=0 / constrained_intra=0 / bframes=4 / b_pyramid=2 / b_adapt=2 / b_bias=0 / direct=3 / weightb=1 / open_gop=0 / weightp=2 / keyint=250 / keyint_min=23 / scenecut=40 / intra_refresh=0 / rc_lookahead=60 / rc=2pass / mbtree=1 / bitrate=7973 / ratetol=1.0 / qcomp=0.60 / qpmin=0 / qpmax=69 / qpstep=4 / cplxblur=20.0 / qblur=0.5 / ip_ratio=1.40 / aq=1:1.00
Default : Yes
Forced : No
Audio
ID : 2
Format : AC-3
Format/Info : Audio Coding 3
Mode extension : CM (complete main)
Format settings, Endianness : Big
Codec ID : A_AC3
Duration : 1h 13mn
Bit rate mode : Constant
Bit rate : 384 Kbps
Channel(s) : 2 channels
Channel positions : Front: L R
Sampling rate : 48.0 KHz
Bit depth : 16 bits
Compression mode : Lossy
Stream size : 201 MiB (5%)
Default : Yes
Forced : No

_________________
Показать сообщения:    

Текущее время: Сегодня 19:15

Часовой пояс: GMT



Вы не можете начинать темы
Вы не можете отвечать на сообщения
Вы не можете редактировать свои сообщения
Вы не можете удалять свои сообщения
Вы не можете голосовать в опросах
Вы не можете прикреплять файлы к сообщениям
Вы не можете скачивать файлы