Важное объявление!
У Нас Все раздачи мультитрекерные, при нуле пиров в релизах, можете смело вставать на закачку!
 
Автор Сообщение

HUNTER

Стаж:
4 года 4 месяца
Сообщений:
56733

Репутация: 101

[+] [-]
Вне форума [Профиль] [ЛС]

Скользящие по небу / Skyrunners-
Страна: США
Студия: Walt Disney Productions, Disney XD
Жанр: детский, фантастика
Год выпуска: 2009
Продолжительность: 01:31:34-Перевод: Профессиональный (дублированный) Студия "Пифагор", 2009
Cубтитры: английские
Оригинальная аудиодорожка: английский-Режиссер: Ральф Хемекер / Ralph Hemecker
В ролях: Келли Блац, Джои Поллари, Конрад Коутс, Жаклин МакИннес Вуд, Нэйтан Стефенсон, Керри Лаи Фатт, Линда Кэш, Аиша Ди, Эндрю Грэйнджер, Кайли Харрис- | Релиз: -Описание: Братья Тайлер и Ник обнаруживают НЛО, потерпевший крушение неподалеку от их города. Оказывается, что летательный аппарат «живой»! Но это не последний сюрприз для ребят — сначала у Тайлера появляются сверхъестественные способности, а потом его и вовсе похищают. С помощью летательного аппарата Нику предстоит пробраться в логово инопланетянина, чтобы спасти своего младшего брата, а заодно и планету Земля от уничтожения.-Доп. информация: Исходный русский звук взят из раздачи SATRip'а и синхронизирован с WEB-DL. Звук в реальном стерео. Во всех остальных раздачах русский 5.1 звук получен путем подмены центрального канала в английской дорожке.-Сeмпл: http://sendfile.su/1028022-Тип релиза: WEB-DL 720p
Контейнер: MKV
Видео: 1280x720 (16:9), 23.976 fps, AVC, ~4001 kbps, 0.181 bits/pixel
Аудио 1: Русский, 48.0 KHz, AC3, 2 ch, 192 kbps
Аудио 2: English, 48.0 KHz, AC3, 6 ch, 384 kbps
Формат субтитров: softsub (SRT)

MediaInfo

GeneralUnique ID : 248040871807558474413702210429295601561 (0xBA9AEF2AA79B3B50B305F7E182512799)Complete name : Skyrunners.2009.WEB-DL.720p.rus.eng.mkvFormat : MatroskaFormat version : Version 4 / Version 2File size : 2.99 GiBDuration : 1h 31mnOverall bit rate : 4 669 KbpsEncoded date : UTC 2014-09-27 16:42:35Writing application : mkvmerge v7.2.0 ('On Every Street') 64bit built on Sep 13 2014 15:52:10Writing library : libebml v1.3.0 + libmatroska v1.4.1DURATION : 01:30:17.472000000NUMBER_OF_FRAMES : 986NUMBER_OF_BYTES : 33085_STATISTICS_WRITING_APP : mkvmerge v7.2.0 ('On Every Street') 64bit built on Sep 13 2014 15:52:10_STATISTICS_WRITING_DATE_UTC : 2014-09-27 16:42:35_STATISTICS_TAGS : BPS DURATION NUMBER_OF_FRAMES NUMBER_OF_BYTES
VideoID : 1Format : AVCFormat/Info : Advanced Video CodecFormat profile : High@L3.1Format settings, CABAC : NoFormat settings, ReFrames : 2 framesCodec ID : V_MPEG4/ISO/AVCDuration : 1h 31mnBit rate : 4 001 KbpsWidth : 1 280 pixelsHeight : 720 pixelsDisplay aspect ratio : 16:9Frame rate mode : ConstantFrame rate : 23.976 fpsColor space : YUVChroma subsampling : 4:2:0Bit depth : 8 bitsScan type : ProgressiveBits/(Pixel*Frame) : 0.181Stream size : 2.56 GiB (86%)Language : EnglishDefault : YesForced : NoColor primaries : BT.709Transfer characteristics : BT.709Matrix coefficients : BT.709
Audio #1ID : 2Format : AC-3Format/Info : Audio Coding 3Mode extension : CM (complete main)Format settings, Endianness : BigCodec ID : A_AC3Duration : 1h 31mnBit rate mode : ConstantBit rate : 192 KbpsChannel(s) : 2 channelsChannel positions : Front: L RSampling rate : 48.0 KHzBit depth : 16 bitsCompression mode : LossyStream size : 126 MiB (4%)Title : Дубляж | Студия "Пифагор", 2009 | Канал "Дисней"Language : RussianDefault : YesForced : No
Audio #2ID : 3Format : AC-3Format/Info : Audio Coding 3Mode extension : CM (complete main)Format settings, Endianness : BigCodec ID : A_AC3Duration : 1h 31mnBit rate mode : ConstantBit rate : 384 KbpsChannel(s) : 6 channelsChannel positions : Front: L C R, Side: L R, LFESampling rate : 48.0 KHzBit depth : 16 bitsCompression mode : LossyStream size : 252 MiB (8%)Language : EnglishDefault : NoForced : No
TextID : 4Format : UTF-8Codec ID : S_TEXT/UTF8Codec ID/Info : UTF-8 Plain TextLanguage : EnglishDefault : NoForced : No

_________________
Показать сообщения:    

Текущее время: Сегодня 04:01

Часовой пояс: GMT



Вы не можете начинать темы
Вы не можете отвечать на сообщения
Вы не можете редактировать свои сообщения
Вы не можете удалять свои сообщения
Вы не можете голосовать в опросах
Вы не можете прикреплять файлы к сообщениям
Вы не можете скачивать файлы