Важное объявление!
У Нас Все раздачи мультитрекерные, при нуле пиров в релизах, можете смело вставать на закачку!
 
Автор Сообщение

HUNTER

Стаж:
4 года 4 месяца
Сообщений:
56809

Репутация: 101

[+] [-]
Вне форума [Профиль] [ЛС]

Скейтбордисты / Grind
Страна: США
Студия: 900 Films, Asphalt Productions и др.
Жанр: комедия, приключения
Год выпуска: 2003
Продолжительность: 01:44:52
Перевод: Профессиональный (двухголосый закадровый) SDI Media
Перевод 2: Профессиональный (двухголосый закадровый)
Cубтитры: английские
Оригинальная аудиодорожка: английский
Режиссер: Кэйси Ла Скала / Casey La Scala
В ролях: Майк Фогель, Винс Вьелуф, Адам Броди, Джои Керн, Дженнифер Моррисон, Джейсон Лондон, Саммер Элтис, Бэм Марджера, Эрин Мерфи, Барон Ла Скала
Описание: Жил-был себе легендарный скейтбордист (Колин Маккэй), никому не мешал. Но тут появились четыре почитателя-экстремала, и решили донимать его во время летнего тура. Уж они готовы на любые самые дикие трюки, лишь бы привлечь к себе внимание крутых спонсоров и самим стать звездами не хуже своего кумира... Проблема "колес" была решена с помощью двадцатилетнего бабника Суита Лу, имеющего минивэн, и новоиспеченная команда скейтбордистов "Супер Дупер" отправляется в безумно веселое и полное приключений путешествие через всю страну.
Доп. информация: За дорожку SDI Media (текст читали Наталья Горбачева и Артём Демьяненко) спасибо miha2154. За вторую двухголоску спасибо Perezo.

Sample
Тип релиза: WEB-DL 1080p
Контейнер: MKV
Видео: MPEG4 AVC Video, H264, 16:9, 1910x1080, 23.976 fps, 4975 kbps
Аудио: Russian (AC3, 2 ch, 192 kbps, 16 bits, 48.0 KHz) - SDI Media
Аудио 2: Russian (AC3, 6 ch, 384 kbps, 16 bits, 48.0 KHz) - DVO
Аудио 3: English (AC3, 6 ch, 384 kbps, 16 bits, 48.0 KHz) - оригинал
Формат субтитров: softsub (SRT)

MediaInfo

General
Unique ID : 191332098388978434619329257274159874483 (0x8FF138C553D357528FD2314D6E0F41B3)
Complete name : K:\Grind 2003 WEB-DL 1080p.mkv
Format : Matroska
Format version : Version 4 / Version 2
File size : 4.44 GiB
Duration : 1h 44mn
Overall bit rate : 6 055 Kbps
Encoded date : UTC 2015-10-22 11:42:12
Writing application : mkvmerge v6.1.0 ('Old Devil') built on Mar 2 2013 14:32:37
Writing library : libebml v1.3.0 + libmatroska v1.4.0
Video
ID : 1
Format : AVC
Format/Info : Advanced Video Codec
Format profile : High@L4.0
Format settings, CABAC : Yes
Format settings, ReFrames : 4 frames
Format settings, GOP : N=2
Codec ID : V_MPEG4/ISO/AVC
Duration : 1h 44mn
Bit rate : 4 975 Kbps
Width : 1 910 pixels
Height : 1 080 pixels
Display aspect ratio : 16:9
Frame rate mode : Constant
Frame rate : 23.976 fps
Color space : YUV
Chroma subsampling : 4:2:0
Bit depth : 8 bits
Scan type : Progressive
Bits/(Pixel*Frame) : 0.101
Stream size : 3.64 GiB (82%)
Language : English
Default : Yes
Forced : No
Color primaries : BT.709
Transfer characteristics : BT.709
Matrix coefficients : BT.709
Audio #1
ID : 2
Format : AC-3
Format/Info : Audio Coding 3
Mode extension : CM (complete main)
Format settings, Endianness : Big
Codec ID : A_AC3
Duration : 1h 44mn
Bit rate mode : Constant
Bit rate : 192 Kbps
Channel count : 2 channels
Channel positions : Front: L R
Sampling rate : 48.0 KHz
Bit depth : 16 bits
Compression mode : Lossy
Stream size : 144 MiB (3%)
Title : SDI Media
Language : Russian
Default : Yes
Forced : No
Audio #2
ID : 3
Format : AC-3
Format/Info : Audio Coding 3
Mode extension : CM (complete main)
Format settings, Endianness : Big
Codec ID : A_AC3
Duration : 1h 44mn
Bit rate mode : Constant
Bit rate : 384 Kbps
Channel count : 6 channels
Channel positions : Front: L C R, Side: L R, LFE
Sampling rate : 48.0 KHz
Bit depth : 16 bits
Compression mode : Lossy
Stream size : 288 MiB (6%)
Title : DVO
Language : Russian
Default : No
Forced : No
Audio #3
ID : 4
Format : AC-3
Format/Info : Audio Coding 3
Mode extension : CM (complete main)
Format settings, Endianness : Big
Codec ID : A_AC3
Duration : 1h 44mn
Bit rate mode : Constant
Bit rate : 384 Kbps
Channel count : 6 channels
Channel positions : Front: L C R, Side: L R, LFE
Sampling rate : 48.0 KHz
Bit depth : 16 bits
Compression mode : Lossy
Stream size : 288 MiB (6%)
Language : English
Default : No
Forced : No
Text
ID : 5
Format : UTF-8
Codec ID : S_TEXT/UTF8
Codec ID/Info : UTF-8 Plain Text
Language : English
Default : No
Forced : No
Menu
00:00:00.000 : en:Customer relations (Credits).
00:05:30.000 : en:School or the store.
00:08:44.000 : en:Chili N Such.
00:11:41.000 : en:Masters of the vert.
00:15:05.000 : en:Tape vault.
00:19:25.000 : en:Hitting the road.
00:21:45.000 : en:Sweet Lou's in.
00:24:44.000 : en:Failing to register.
00:29:56.000 : en:Party crashers.
00:33:15.000 : en:Super Duper dancing.
00:38:39.000 : en:Pink Motel.
00:43:07.000 : en:Bed buds.
00:45:09.000 : en:Free food.
00:49:16.000 : en:A day late.
00:51:55.000 : en:Demo without freebies.
00:54:31.000 : en:Deserted in the desert.
00:57:41.000 : en:A sign and a lizard.
01:00:38.000 : en:Jamie.
01:03:58.000 : en:No go no 2.
01:06:09.000 : en:Turbo jump.
01:10:53.000 : en:Team vibe.
01:15:08.000 : en:Clowning with Matt's family.
01:20:33.000 : en:Wish come true.
01:23:14.000 : en:Finding Jamie out.
01:27:23.000 : en:Super Duper time.
01:29:45.000 : en:Vert showdown.
01:37:05.000 : en:Bus stop.
01:39:53.000 : en:Outtake End Credits.

Скриншоты


_________________
Показать сообщения:    

Текущее время: Сегодня 15:47

Часовой пояс: GMT



Вы не можете начинать темы
Вы не можете отвечать на сообщения
Вы не можете редактировать свои сообщения
Вы не можете удалять свои сообщения
Вы не можете голосовать в опросах
Вы не можете прикреплять файлы к сообщениям
Вы не можете скачивать файлы