Важное объявление!
У Нас Все раздачи мультитрекерные, при нуле пиров в релизах, можете смело вставать на закачку!
 
Автор Сообщение

HUNTER

Стаж:
4 года 4 месяца
Сообщений:
56749

Репутация: 101

[+] [-]
Вне форума [Профиль] [ЛС]

Сквозные ранения / Exit Wounds
Страна: США
Студия: Warner Brothers Pictures
Жанр: боевик, криминал
Год выпуска: 2001
Продолжительность: 01:44:22
Перевод 1: Профессиональный (дублированный) - Каро Премьер / Мост Видео
Перевод 1: Профессиональный (многоголосый закадровый) - Россия
Перевод 1: Профессиональный (многоголосый закадровый) - НТВ
Перевод 1: Авторский (одноголосый закадровый) - Живов
Перевод 1: Авторский (одноголосый закадровый) - Гаврилов
Перевод 1: Авторский (одноголосый закадровый) - Дольский
Cубтитры: есть
Язык субтитров: Русские, английские
Вид субтитров: Вшитые (отключаемые)
Оригинальная аудиодорожка: английский
Режиссер: Анджей Бартковяк / Andrzej Bartkowiak
В ролях:
DMX — Лэтрелл Уолкер
Стивен Сигал — Орин Бойд
Исайя Вашингтон — Джордж Кларк
Энтони Андерсон — ТиКей Джонсон
Майкл Джей Уайт — Льюис Стратт
Билл Дьюк — шеф Хингес
Джилл Хеннесси — Аннетт Мулкахи
Том Арнольд — Генри Уэйн
Брюс МакГилл — Фрэнк Дэниэлс
Давид Вадим — Мэт Монтини
Ева Мендес — Триш
Drag-On — Шон Роллинс
Описание: Именем детектива Орина Бойда из Детройта следовало бы назвать улицу. Вместо этого, после того как он днями и ночами охотился за наемными политическими убийцами, его переводят в дорожную полицию. Кто-то хочет убрать Бойда с дороги, но ему стоит прислушаться к совету: «вызывай подкрепление»!
Доп. информация: Именно ТОТ САМЫЙ перевод, который и создает всю атмосферу фильма.
Сэмпл: https://yadi.sk/i/pmjHMhs3e3dTA или
Тип релиза: BDRip 1080p
Контейнер: MKV
Видео: MPEG-4 AVC Video / 10.3 mbps / 1080p / 23.976 fps / 16:9 / High Profile 4.1
Аудио:
1: Russian / AC-3 / 5.1 / 48 kHz / 384 kbps |Дубляж - Каро Премьер / Мост Видео|
2: Russian: AC-3 / 2.0 / 48 kHz / 256 kbps |Профессиональный (многоголосый закадровый) Россия|
3: Russian: AC-3 / 2.0 / 48 kHz / 192 kbps |Профессиональный (многоголосый закадровый) НТВ|
4: Russian: AC-3 / 2.0 / 48 kHz / 384 kbps |Одноголосый закадровый Живов|
5: Russian: AC-3 / 5.1 / 48 kHz / 384 kbps |Одноголосый закадровый Гаврилов|
6: Russian: AC-3 / 2.0 / 48 kHz / 256 kbps |Одноголосый закадровый Дольский|
7: Russian: AC-3 / 2.0 / 48 kHz / 128 kbps |Одноголосый закадровый с VHS| - тот перевод
8: English: DTS / 5.1 / 48 kHz / 1500 kbps |Оригинал|

MediaInfo

Общее
Уникальный идентификатор : 199485092239574156000843634981023880233 (0x96136E6713482D7E9811EB5BE3859429)
Полное имя : Сквозные.ранения_Exit.Wounds.2001.BDRip.1080p.mkv
Формат : Matroska
Версия формата : Version 4 / Version 2
Размер файла : 9,76 Гбайт
Продолжительность : 1 ч. 41 м.
Общий поток : 13,8 Мбит/сек
Название фильма : Сквозные.ранения_Exit.Wounds.2001.BDRip.1080p
Дата кодирования : UTC 2015-01-08 21:41:31
Программа кодирования : mkvmerge v5.8.0 ('No Sleep / Pillow') built on Jan 08 2015 19:43:22
Библиотека кодирования : libebml v1.3.0 + libmatroska v1.4.0
Видео
Идентификатор : 1
Формат : AVC
Формат/Информация : Advanced Video Codec
Профиль формата : High@L4.1
Параметр CABAC формата : Да
Параметр ReFrames формата : 4 кадра
Идентификатор кодека : V_MPEG4/ISO/AVC
Продолжительность : 1 ч. 41 м.
Битрейт : 10,3 Мбит/сек
Ширина : 1920 пикселей
Высота : 800 пикселей
Соотношение сторон : 2,40:1
Режим частоты кадров : Постоянный
Частота кадров : 23,976 кадра/сек
Цветовое пространство : YUV
Субдискретизация насыщенности : 4:2:0
Битовая глубина : 8 бит
Тип развёртки : Прогрессивная
Бит/(Пиксели*Кадры) : 0.280
Размер потока : 7,09 Гбайт (73%)
Заголовок : Сквозные.ранения_Exit.Wounds.2001.BDRip.1080p
Библиотека кодирования : x264 core 142 r2479 dd79a61
Настройки программы : cabac=1 / ref=4 / deblock=1:-3:-3 / analyse=0x3:0x133 / me=umh / subme=11 / psy=1 / psy_rd=1.00:0.15 / mixed_ref=1 / me_range=32 / chroma_me=1 / trellis=2 / 8x8dct=1 / cqm=0 / deadzone=21,11 / fast_pskip=0 / chroma_qp_offset=-3 / threads=12 / lookahead_threads=2 / sliced_threads=0 / nr=0 / decimate=1 / interlaced=0 / bluray_compat=0 / constrained_intra=0 / bframes=8 / b_pyramid=2 / b_adapt=2 / b_bias=0 / direct=3 / weightb=1 / open_gop=0 / weightp=2 / keyint=250 / keyint_min=23 / scenecut=40 / intra_refresh=0 / rc_lookahead=40 / rc=2pass / mbtree=1 / bitrate=10299 / ratetol=1.0 / qcomp=0.60 / qpmin=0 / qpmax=69 / qpstep=4 / cplxblur=20.0 / qblur=0.5 / vbv_maxrate=50000 / vbv_bufsize=62500 / nal_hrd=none / filler=0 / ip_ratio=1.40 / aq=1:0.90
Язык : English
Default : Да
Forced : Нет
Аудио #1
Идентификатор : 2
Формат : AC-3
Формат/Информация : Audio Coding 3
Расширение режима : CM (complete main)
Параметр Endianness формата : Big
Идентификатор кодека : A_AC3
Продолжительность : 1 ч. 41 м.
Вид битрейта : Постоянный
Битрейт : 384 Кбит/сек
Каналы : 6 каналов
Расположение каналов : Front: L C R, Side: L R, LFE
Частота : 48,0 КГц
Битовая глубина : 16 бит
Метод сжатия : С потерями
Размер потока : 278 Мбайт (3%)
Заголовок : Дубляж
Язык : Russian
Default : Да
Forced : Нет
Аудио #2
Идентификатор : 3
Формат : AC-3
Формат/Информация : Audio Coding 3
Расширение режима : CM (complete main)
Параметр Endianness формата : Big
Идентификатор кодека : A_AC3
Продолжительность : 1 ч. 41 м.
Вид битрейта : Постоянный
Битрейт : 256 Кбит/сек
Каналы : 2 канала
Расположение каналов : Front: L R
Частота : 48,0 КГц
Битовая глубина : 16 бит
Метод сжатия : С потерями
Размер потока : 186 Мбайт (2%)
Заголовок : MVO - Россия
Язык : Russian
Default : Нет
Forced : Нет
Аудио #3
Идентификатор : 4
Формат : AC-3
Формат/Информация : Audio Coding 3
Расширение режима : CM (complete main)
Параметр Endianness формата : Big
Идентификатор кодека : A_AC3
Продолжительность : 1 ч. 41 м.
Вид битрейта : Постоянный
Битрейт : 192 Кбит/сек
Каналы : 2 канала
Расположение каналов : Front: L R
Частота : 48,0 КГц
Битовая глубина : 16 бит
Метод сжатия : С потерями
Размер потока : 139 Мбайт (1%)
Заголовок : MVO - НТВ
Язык : Russian
Default : Нет
Forced : Нет
Аудио #4
Идентификатор : 5
Формат : AC-3
Формат/Информация : Audio Coding 3
Расширение режима : CM (complete main)
Параметр Endianness формата : Big
Идентификатор кодека : A_AC3
Продолжительность : 1 ч. 41 м.
Вид битрейта : Постоянный
Битрейт : 384 Кбит/сек
Каналы : 2 канала
Расположение каналов : Front: L R
Частота : 48,0 КГц
Битовая глубина : 16 бит
Метод сжатия : С потерями
Размер потока : 278 Мбайт (3%)
Заголовок : Живов
Язык : Russian
Default : Нет
Forced : Нет
Аудио #5
Идентификатор : 6
Формат : AC-3
Формат/Информация : Audio Coding 3
Расширение режима : CM (complete main)
Параметр Endianness формата : Big
Идентификатор кодека : A_AC3
Продолжительность : 1 ч. 41 м.
Вид битрейта : Постоянный
Битрейт : 384 Кбит/сек
Каналы : 6 каналов
Расположение каналов : Front: L C R, Side: L R, LFE
Частота : 48,0 КГц
Битовая глубина : 16 бит
Метод сжатия : С потерями
Размер потока : 278 Мбайт (3%)
Заголовок : Гаврилов
Язык : Russian
Default : Нет
Forced : Нет
Аудио #6
Идентификатор : 7
Формат : AC-3
Формат/Информация : Audio Coding 3
Расширение режима : CM (complete main)
Параметр Endianness формата : Big
Идентификатор кодека : A_AC3
Продолжительность : 1 ч. 41 м.
Вид битрейта : Постоянный
Битрейт : 256 Кбит/сек
Каналы : 2 канала
Расположение каналов : Front: L R
Частота : 48,0 КГц
Битовая глубина : 16 бит
Метод сжатия : С потерями
Размер потока : 186 Мбайт (2%)
Заголовок : Дольский
Язык : Russian
Default : Нет
Forced : Нет
Аудио #7
Идентификатор : 8
Формат : AC-3
Формат/Информация : Audio Coding 3
Расширение режима : CM (complete main)
Параметр Endianness формата : Big
Идентификатор кодека : A_AC3
Продолжительность : 1 ч. 41 м.
Вид битрейта : Постоянный
Битрейт : 128 Кбит/сек
Каналы : 2 канала
Расположение каналов : Front: L R
Частота : 44,1 КГц
Битовая глубина : 16 бит
Метод сжатия : С потерями
Размер потока : 92,8 Мбайт (1%)
Заголовок : Клевый перевод с VHS
Язык : Russian
Default : Нет
Forced : Нет
Аудио #8
Идентификатор : 9
Формат : DTS
Формат/Информация : Digital Theater Systems
Режим : 16
Параметр Endianness формата : Big
Идентификатор кодека : A_DTS
Продолжительность : 1 ч. 41 м.
Вид битрейта : Постоянный
Битрейт : 1509 Кбит/сек
Каналы : 6 каналов
Расположение каналов : Front: L C R, Side: L R, LFE
Частота : 48,0 КГц
Битовая глубина : 24 бит
Метод сжатия : С потерями
Размер потока : 1,07 Гбайт (11%)
Заголовок : Оригинал
Язык : English
Default : Нет
Forced : Нет
Текст #1
Идентификатор : 10
Формат : UTF-8
Идентификатор кодека : S_TEXT/UTF8
Идентификатор кодека/Информация : UTF-8 Plain Text
Язык : Russian
Default : Нет
Forced : Нет
Текст #2
Идентификатор : 11
Формат : UTF-8
Идентификатор кодека : S_TEXT/UTF8
Идентификатор кодека/Информация : UTF-8 Plain Text
Язык : English
Default : Нет
Forced : Нет
Меню
00:00:00.000 : en:Chapter 01
00:11:34.485 : en:Chapter 02
00:20:06.997 : en:Chapter 03
00:31:57.999 : en:Chapter 04
00:40:00.231 : en:Chapter 05
00:49:25.921 : en:Chapter 06
00:59:58.970 : en:Chapter 07
01:09:43.512 : en:Chapter 08
01:19:41.777 : en:Chapter 09
01:31:48.044 : en:Chapter 10
01:34:53.104 : en:Chapter 11

Скриншоты

Раздача преимущественно делается для ТОГО САМОГО перевода. Ибо всё что я находил по отдельности - синхронизировать не удается из-за разных продолжительностей видеоряда и аудиодорожек.

_________________
Показать сообщения:    

Текущее время: Сегодня 01:12

Часовой пояс: GMT



Вы не можете начинать темы
Вы не можете отвечать на сообщения
Вы не можете редактировать свои сообщения
Вы не можете удалять свои сообщения
Вы не можете голосовать в опросах
Вы не можете прикреплять файлы к сообщениям
Вы не можете скачивать файлы