Важное объявление!
У Нас Все раздачи мультитрекерные, при нуле пиров в релизах, можете смело вставать на закачку!
 
Автор Сообщение

HUNTER

Стаж:
4 года 4 месяца
Сообщений:
56765

Репутация: 101

[+] [-]
Вне форума [Профиль] [ЛС]

Торрент перезалит, замена HDTVRip на WEB-DL.-Сканирование мозга / Brainscan«Game Over... You Loose!»-
Год выпуска: 1994
Страна: Канада, США, Великобритания
Жанр: ужасы, фантастика, триллер, комедия
Продолжительность: 01:36:01
Перевод 1: Профессиональный (многоголосый закадровый) - Союз Видео
Перевод 2: Профессиональный (двухголосый закадровый) - Екатеринбург Арт
Перевод 3: Авторский (одноголосый закадровый) - Горчаков
Перевод 4: Авторский (одноголосый закадровый) - Володарский
Перевод 5: Авторский (одноголосый закадровый) - Иванов
Субтитры: английские
Оригинальная аудиодорожка: английская- -Режиссер: Джон Флинн
Продюсер: Мишель Рой, Эрл Берман, Эштер Фрейфелд
Сценарий: Эндрю Кевин Уокер, Брайан Оуенс-В ролях: Эдвард Ферлонг, Фрэнк Ланджелла, Т. Райдер Смит, Эми Харгривз, Джеймс Марш, Виктор Эртманис, Дэвид Хемблен, Власта Врана, Доменико Фиоре, Клер Райли-Описание:
Когда старшеклассник Майкл приобрел компьютерную интерактивную игру в виртуальной реальности «Сканирование мозга», он и не подозревал, что игрушка колдовским образом проникнет в его подсознание и выпустит на свободу самые потаенные страхи и фантазии.
В этой игре нужно совершить убийство, не оставив никаких свидетелей и улик. Игра кажется просто замечательной: острые ощущения и чувство полной реальности происходящего. Но дело в том, что убийства, совершаемые в игре, происходят на самом деле!
Майкл пытается остановиться, но через экран компьютера появляется Трикстер, живое воплощение «Сканирования мозга», лестью и угрозами заставляя его играть вновь и вновь. За расследование серии странных преступлений берется детектив Хейден, а многочисленные улики неопровержимо указывают на Майкла…-Качество: WEB-DL 720p SAMPLE
Исходник: US iTunes
Формат: MKV
Видео: MPEG4 Video (H264) 1280x718 23.976fps ~4085Kbps
Аудио #1: 48 kHz, AC3, 2.0 (L,R) ch, ~192.00 kbps avg |Профессиональный, многоголосый - Союз-Видео|
Аудио #2: 48 kHz, AC3, 2.0 (L,R) ch, ~192.00 kbps avg |Профессиональный, многоголосый|
Аудио #3: 48 kHz, AC3, 2.0 (L,R) ch, ~192.00 kbps avg |Авторский, одноголосый - Горчаков|
Аудио #4: 48 kHz, AC3, 2.0 (L,R) ch, ~192.00 kbps avg |Авторский, одноголосый - Володарский|
Аудио #5: 48 kHz, AC3, 2.0 (L,R) ch, ~192.00 kbps avg |Авторский, одноголосый - Иванов|
Аудио #6: 48 kHz, AAC, 2.0 (L,R) ch, ~160.00 kbps avg |Оригинал|
Субтитры: SoftSub (SRT)
Главы: 28 шт. (подписанные)
-

MediaInfo

Код:
Общее
Уникальный идентификатор                 : 172417661946233428073873771677003680291 (0x81B66F0E105E3781A3C3BFFAFE9E0A23)
Полное имя                               : D:\Видео\HD\Brainscan.1994.720p.WEB-DL.5xRus.Eng.HDCLUB.mkv
Формат                                   : Matroska
Версия формата                           : Version 4 / Version 2
Размер файла                             : 3,49 Гбайт
Продолжительность                        : 1 ч. 36 м.
Общий поток                              : 5207 Кбит/сек
Название фильма                          : Release by spartanec163
Дата кодирования                         : UTC 2016-03-20 13:25:14
Программа кодирования                    : mkvmerge v8.3.0 ('Over the Horizon') 64bit
Библиотека кодирования                   : libebml v1.3.1 + libmatroska v1.4.2
Видео
Идентификатор                            : 1
Формат                                   : AVC
Формат/Информация                        : Advanced Video Codec
Профиль формата                          : High@L3.1
Параметр CABAC формата                   : Нет
Параметр ReFrames формата                : 2 кадра
Идентификатор кодека                     : V_MPEG4/ISO/AVC
Продолжительность                        : 1 ч. 36 м.
Битрейт                                  : 4085 Кбит/сек
Ширина                                   : 1280 пикселей
Высота                                   : 718 пикселей
Соотношение сторон                       : 16:9
Режим частоты кадров                     : Постоянный
Частота кадров                           : 23,976 (24000/1001) кадра/сек
Цветовое пространство                    : YUV
Субдискретизация насыщенности            : 4:2:0
Битовая глубина                          : 8 бит
Тип развёртки                            : Прогрессивная
Бит/(Пиксели*Кадры)                      : 0.185
Размер потока                            : 2,74 Гбайт (78%)
Заголовок                                : WEB-DL 720p (US iTunes)
Язык                                     : English
Default                                  : Да
Forced                                   : Нет
Цветовой диапазон                        : Limited
Основные цвета                           : BT.709
Характеристики трансфера                 : BT.709
Коэффициенты матрицы                     : BT.709
Аудио #1
Идентификатор                            : 2
Формат                                   : AC-3
Формат/Информация                        : Audio Coding 3
Расширение режима                        : CM (complete main)
Параметр Endianness формата              : Big
Идентификатор кодека                     : A_AC3
Продолжительность                        : 1 ч. 36 м.
Вид битрейта                             : Постоянный
Битрейт                                  : 192 Кбит/сек
Каналы                                   : 2 канала
Расположение каналов                     : Front: L R
Частота                                  : 48,0 КГц
Частота кадров                           : 31,250 кадров/сек (1536 spf)
Метод сжатия                             : С потерями
Размер потока                            : 132 Мбайт (4%)
Заголовок                                : AC3 2.0 192Kbps (Профессиональный, многоголосый - Союз-Видео)
Язык                                     : Russian
Default                                  : Да
Forced                                   : Нет
Аудио #2
Идентификатор                            : 3
Формат                                   : AC-3
Формат/Информация                        : Audio Coding 3
Расширение режима                        : CM (complete main)
Параметр Endianness формата              : Big
Идентификатор кодека                     : A_AC3
Продолжительность                        : 1 ч. 36 м.
Вид битрейта                             : Постоянный
Битрейт                                  : 192 Кбит/сек
Каналы                                   : 2 канала
Расположение каналов                     : Front: L R
Частота                                  : 48,0 КГц
Частота кадров                           : 31,250 кадров/сек (1536 spf)
Метод сжатия                             : С потерями
Размер потока                            : 132 Мбайт (4%)
Заголовок                                : AC3 2.0 192Kbps (Профессиональный, двухголосый - Екатеринбург Арт)
Язык                                     : Russian
Default                                  : Нет
Forced                                   : Нет
Аудио #3
Идентификатор                            : 4
Формат                                   : AC-3
Формат/Информация                        : Audio Coding 3
Расширение режима                        : CM (complete main)
Параметр Endianness формата              : Big
Идентификатор кодека                     : A_AC3
Продолжительность                        : 1 ч. 36 м.
Вид битрейта                             : Постоянный
Битрейт                                  : 192 Кбит/сек
Каналы                                   : 2 канала
Расположение каналов                     : Front: L R
Частота                                  : 48,0 КГц
Частота кадров                           : 31,250 кадров/сек (1536 spf)
Метод сжатия                             : С потерями
Размер потока                            : 132 Мбайт (4%)
Заголовок                                : AC3 2.0 192Kbps (Авторский, одноголосый - Горчаков)
Язык                                     : Russian
Default                                  : Нет
Forced                                   : Нет
Аудио #4
Идентификатор                            : 5
Формат                                   : AC-3
Формат/Информация                        : Audio Coding 3
Расширение режима                        : CM (complete main)
Параметр Endianness формата              : Big
Идентификатор кодека                     : A_AC3
Продолжительность                        : 1 ч. 36 м.
Вид битрейта                             : Постоянный
Битрейт                                  : 192 Кбит/сек
Каналы                                   : 2 канала
Расположение каналов                     : Front: L R
Частота                                  : 48,0 КГц
Частота кадров                           : 31,250 кадров/сек (1536 spf)
Метод сжатия                             : С потерями
Размер потока                            : 132 Мбайт (4%)
Заголовок                                : AC3 2.0 192Kbps (Авторский, одноголосый - Володарский)
Язык                                     : Russian
Default                                  : Нет
Forced                                   : Нет
Аудио #5
Идентификатор                            : 6
Формат                                   : AC-3
Формат/Информация                        : Audio Coding 3
Расширение режима                        : CM (complete main)
Параметр Endianness формата              : Big
Идентификатор кодека                     : A_AC3
Продолжительность                        : 1 ч. 36 м.
Вид битрейта                             : Постоянный
Битрейт                                  : 192 Кбит/сек
Каналы                                   : 2 канала
Расположение каналов                     : Front: L R
Частота                                  : 48,0 КГц
Частота кадров                           : 31,250 кадров/сек (1536 spf)
Метод сжатия                             : С потерями
Размер потока                            : 132 Мбайт (4%)
Заголовок                                : AC3 2.0 192Kbps (Авторский, одноголосый - Иванов)
Язык                                     : Russian
Default                                  : Нет
Forced                                   : Нет
Аудио #6
Идентификатор                            : 7
Формат                                   : AAC
Формат/Информация                        : Advanced Audio Codec
Профиль формата                          : LC
Идентификатор кодека                     : A_AAC
Продолжительность                        : 1 ч. 36 м.
Битрейт                                  : 158 Кбит/сек
Каналы                                   : 2 канала
Расположение каналов                     : Front: L R
Частота                                  : 48,0 КГц
Частота кадров                           : 46,875 кадров/сек (1024 spf)
Метод сжатия                             : С потерями
Размер потока                            : 108 Мбайт (3%)
Заголовок                                : AAC 2.0 160Kbps (Оригинал)
Язык                                     : English
Default                                  : Нет
Forced                                   : Нет
Текст
Идентификатор                            : 8
Формат                                   : UTF-8
Идентификатор кодека                     : S_TEXT/UTF8
Идентификатор кодека/Информация          : UTF-8 Plain Text
Продолжительность                        : 1 ч. 35 м.
Битрейт                                  : 48 бит/сек
Count of elements                        : 1071
Размер потока                            : 33,6 Кбайт (0%)
Заголовок                                : SDH
Язык                                     : English
Default                                  : Нет
Forced                                   : Нет
Меню
00:00:00.000                             : en:Start
00:03:48.000                             : en:Kyle Calls
00:05:46.000                             : en:How Kimberly's Lookin Tonight
00:08:41.000                             : en:1-800-555-Fear
00:10:25.000                             : en:The Horror Club
00:17:41.000                             : en:Rules Of The Game
00:18:58.000                             : en:Brainscan Disc 1-The Murder
00:24:32.000                             : en:Telling Kyle All About It
00:26:14.000                             : en:Grisly Murder In Montview
00:30:01.000                             : en:"My Name Is Trickster"
00:35:06.000                             : en:Playing Footsie With Zak
00:37:53.000                             : en:Kyle Stops By
00:39:37.000                             : en:Good Neighbor Kimberly
00:42:37.000                             : en:Trickster Returns
00:44:27.000                             : en:Brainscan Disc 1-The Witness
00:50:20.000                             : en:"You Killed The Witness"
00:52:33.000                             : en:Lt. Hayden & Sgt. Martin
00:55:42.000                             : en:Kimberly's Intertview
00:57:30.000                             : en:A Bargain Between Friends
01:04:08.000                             : en:Brainscan Disc 3 -The Clue
01:07:32.000                             : en:Dr. Fromberg Logs Out
01:10:02.000                             : en:Officer Down
01:14:19.000                             : en:"Her Life Or Yours. Choose!"
01:16:53.000                             : en:Brainscan Disc 4 - The Second Witness
01:19:48.000                             : en:Michael Vs. Trickster
01:23:44.000                             : en:Trickster's Surprise
01:28:44.000                             : en:Maybe, Not No
01:30:53.000                             : en:A Game For The Horror Club

-

Сравнение WEB-DL 720p и HDTVRip 720p

WEB-DL 720p..............................HDTVRip 720p



-

_________________
Показать сообщения:    

Текущее время: Сегодня 06:20

Часовой пояс: GMT



Вы не можете начинать темы
Вы не можете отвечать на сообщения
Вы не можете редактировать свои сообщения
Вы не можете удалять свои сообщения
Вы не можете голосовать в опросах
Вы не можете прикреплять файлы к сообщениям
Вы не можете скачивать файлы