Важное объявление!
У Нас Все раздачи мультитрекерные, при нуле пиров в релизах, можете смело вставать на закачку!
 
Автор Сообщение

HUNTER

Стаж:
4 года 4 месяца
Сообщений:
56839

Репутация: 101

[+] [-]
Вне форума [Профиль] [ЛС]

Скала Малхолланд / Mulholland Falls
Страна: США
Жанр: триллер, драма, криминал, детектив
Год выпуска: 1995
Продолжительность: 01:46:51
Перевод #1: Профессиональный (многоголосый закадровый) R5
Перевод #2: Профессиональный (многоголосый закадровый)
Перевод #3: Одноголосый закадровый Е.Гаевский
Перевод #4: Авторский одноголосый закадровый А.Гаврилов
Cубтитры: русские, английские
Оригинальная аудиодорожка: английский
Режиссер: Ли Тамахори / Lee Tamahori
В ролях: Ник Нолти, Мелани Гриффит, Чазз Пальминтери, Майкл Мэдсен, Крис Пенн, Трит Уильямс, Дженнифер Коннелли,
Дэниэл Болдуин, Эндрю МакКарти, Джон Малкович
Описание: Лос-Анджелес, начало 50-х. Особые полномочия в борьбе с преступностью получает полицейское подразделение Макса Гувера. В окрестностях города найдено тело убитой Эллисон Понд.
О ее тайных свиданиях с Максом не подозревали ни его жена Кэтрин, ни друзья. Расследование приводит детектива на военную базу генерала Тиммса…
Сэмпл: http://sendfile.su/933467
Тип релиза: HDTVRip 720p
Контейнер: MKV
Видео: MPEG4 Video (H264) 1280x694 (83:45) 23.976fps ~5346Kbps
Аудио #1: Dolby AC3 48000Hz stereo 192kbps |многоголосый закадровый R5|
Аудио #2: Dolby AC3 48000Hz stereo 192kbps |многоголосый закадровый|
Аудио #3: Dolby AC3 48000Hz 6ch 448kbps |Одноголосый закадровый Е.Гаевский|
Аудио #4: Dolby AC3 48000Hz stereo 192kbps |Авторский одноголосый закадровый А.Гаврилов|
Аудио #5: Dolby AC3 48000Hz 6ch 448kbps |английский|
Формат субтитров: softsub (SSA/ASS)

MediaInfo

GeneralUnique ID : 203866667088927110463131110678506614288 (0x995F4AB8B4E2E500971E06AB9041AE10)Format : MatroskaFormat version : Version 4 / Version 2File size : 5.19 GiBDuration : 1h 46mnOverall bit rate : 6 957 KbpsMovie name : Mulholland.Falls.1996.720p.HDTV.AC3.x264-FANDANGOEncoded date : UTC 2013-09-20 15:55:31Writing application : mkvmerge v6.3.0 ('You can't stop me!') built on Jun 28 2013 20:09:41Writing library : libebml v1.3.0 + libmatroska v1.4.0Attachment : Yes
VideoID : 1Format : AVCFormat/Info : Advanced Video CodecFormat profile : High@L4.1Format settings, CABAC : YesFormat settings, ReFrames : 9 framesCodec ID : V_MPEG4/ISO/AVCDuration : 1h 46mnBit rate : 5 346 KbpsWidth : 1 280 pixelsHeight : 694 pixelsDisplay aspect ratio : 1.85:1Frame rate mode : ConstantFrame rate : 23.976 fpsColor space : YUVChroma subsampling : 4:2:0Bit depth : 8 bitsScan type : ProgressiveBits/(Pixel*Frame) : 0.251Stream size : 3.99 GiB (77%)Title : Mulholland.Falls.1996.720p.HDTV.AC3.x264-FANDANGOWriting library : x264 core 132 r2309kMod 3b1f1f7Encoding settings : opencl=1 / cabac=1 / ref=9 / deblock=1:-3:-3 / analyse=0x3:0x113 / me=umh / subme=10 / psy=1 / fade_compensate=0.00 / psy_rd=1.05:0.00 / mixed_ref=1 / me_range=16 / chroma_me=1 / trellis=2 / 8x8dct=1 / cqm=0 / deadzone=21,11 / fast_pskip=0 / chroma_qp_offset=-2 / threads=6 / lookahead_threads=1 / sliced_threads=0 / nr=0 / decimate=0 / interlaced=0 / bluray_compat=0 / constrained_intra=0 / bframes=8 / b_pyramid=2 / b_adapt=2 / b_bias=0 / direct=3 / weightb=1 / open_gop=0 / weightp=2 / keyint=250 / keyint_min=23 / scenecut=40 / intra_refresh=0 / rc=crf / mbtree=0 / crf=18.0000 / qcomp=0.75 / qpmin=0 / qpmax=69 / qpstep=4 / ip_ratio=1.30 / pb_ratio=1.20 / aq=1:0.90Language : EnglishDefault : YesForced : No
Audio #1ID : 2Format : AC-3Format/Info : Audio Coding 3Mode extension : CM (complete main)Format settings, Endianness : BigCodec ID : A_AC3Duration : 1h 46mnBit rate mode : ConstantBit rate : 192 KbpsChannel count : 2 channelsChannel positions : Front: L RSampling rate : 48.0 KHzBit depth : 16 bitsCompression mode : LossyStream size : 147 MiB (3%)Title : MVO (R5)Language : RussianDefault : YesForced : No
Audio #2ID : 3Format : AC-3Format/Info : Audio Coding 3Mode extension : CM (complete main)Format settings, Endianness : BigCodec ID : A_AC3Duration : 1h 46mnBit rate mode : ConstantBit rate : 192 KbpsChannel count : 2 channelsChannel positions : Front: L RSampling rate : 48.0 KHzBit depth : 16 bitsCompression mode : LossyStream size : 147 MiB (3%)Title : MVOLanguage : RussianDefault : NoForced : No
Audio #3ID : 4Format : AC-3Format/Info : Audio Coding 3Mode extension : CM (complete main)Format settings, Endianness : BigCodec ID : A_AC3Duration : 1h 46mnBit rate mode : ConstantBit rate : 448 KbpsChannel count : 6 channelsChannel positions : Front: L C R, Side: L R, LFESampling rate : 48.0 KHzBit depth : 16 bitsCompression mode : LossyStream size : 342 MiB (6%)Title : VO (Gaevsky)Language : RussianDefault : NoForced : No
Audio #4ID : 5Format : AC-3Format/Info : Audio Coding 3Mode extension : CM (complete main)Format settings, Endianness : BigCodec ID : A_AC3Duration : 1h 46mnBit rate mode : ConstantBit rate : 192 KbpsChannel count : 2 channelsChannel positions : Front: L RSampling rate : 48.0 KHzBit depth : 16 bitsCompression mode : LossyStream size : 147 MiB (3%)Title : AVO (Gavrilov)Language : RussianDefault : NoForced : No
Audio #5ID : 6Format : AC-3Format/Info : Audio Coding 3Mode extension : CM (complete main)Format settings, Endianness : BigCodec ID : A_AC3Duration : 1h 46mnBit rate mode : ConstantBit rate : 448 KbpsChannel count : 6 channelsChannel positions : Front: L C R, Side: L R, LFESampling rate : 48.0 KHzBit depth : 16 bitsCompression mode : LossyStream size : 342 MiB (6%)Title : Original R1Language : EnglishDefault : NoForced : No
Text #1ID : 7Format : UTF-8Codec ID : S_TEXT/UTF8Codec ID/Info : UTF-8 Plain TextTitle : v. 1.1Language : RussianDefault : NoForced : No
Text #2ID : 8Format : UTF-8Codec ID : S_TEXT/UTF8Codec ID/Info : UTF-8 Plain TextTitle : R1Language : EnglishDefault : NoForced : No
Menu00:00:00.000 : en:Main Title00:04:13.244 : en:Pick Up & Drop Off00:09:47.744 : en:"Broken in Pieces"00:15:12.244 : en:Disturbing Film00:19:36.244 : en:"I Need Protection!"00:22:46.744 : en:Two-Way Mirror00:30:20.911 : en:"Private Party"00:33:30.911 : en:Intimate Interrogation00:40:49.378 : en:Shootout at the Shore00:44:11.378 : en:Radioactive Discovery00:53:07.246 : en:Philosophical General01:00:11.646 : en:A Visit From the FBI01:08:40.646 : en:An Affair Exposed01:18:42.646 : en:Terminal Situation01:29:43.413 : en:Partners to the End01:37:52.413 : en:Broken Heart/Credits

Скриншот c названием фильма

Скриншоты


_________________
Показать сообщения:    

Текущее время: Сегодня 09:15

Часовой пояс: GMT



Вы не можете начинать темы
Вы не можете отвечать на сообщения
Вы не можете редактировать свои сообщения
Вы не можете удалять свои сообщения
Вы не можете голосовать в опросах
Вы не можете прикреплять файлы к сообщениям
Вы не можете скачивать файлы