Важное объявление!
У Нас Все раздачи мультитрекерные, при нуле пиров в релизах, можете смело вставать на закачку!
 
Автор Сообщение

HUNTER

Стаж:
4 года 4 месяца
Сообщений:
56720

Репутация: 101

[+] [-]
Вне форума [Профиль] [ЛС]

--Скала / The Rock«Cocked, locked, and Ready to Rock!»-
-Год выпуска: 1996
Страна: США
Жанр: Боевик, триллер, приключения
Продолжительность: 02:16:29
Перевод №1: Профессиональный (дублированный)
Перевод №2: Профессиональный (многоголосый закадровый, Карусель)
Перевод №3: Профессиональный Авторский (одноголосый закадровый, А.Гаврилов)
Перевод №4: Профессиональный Авторский (одноголосый закадровый, Ю.Живов)
Перевод №5: Профессиональный Авторский (одноголосый закадровый, С.Визгунов)
Перевод №6: Любительский (одноголосый закадровый, М.Яроцкий (kyberpunk))
Субтитры: Русские, Английские-Режиссер: Майкл Бэй / Michael Bay
Сценарий: Дэвид Уайсберг / David Weisberg, Дуглас Кук / Douglas Cook, Марк Роснер / Mark Rosner
Продюсер: Кенни Бейтс / Kenny Bates, Джерри Брукхаймер / Jerry Bruckheimer, Шон Коннери / Sean Connery, Дон Симпсон / Don Simpson, Луис А. Строллер / Louis A. Stroller
Оператор: Джон Шварцман / John Schwartzman
Композитор: Ник Гленни-Смит / Nick Glennie-Smith, Ханс Циммер / Hans Zimmer
В ролях: Шон Коннери (John Patrick Mason), Николас Кейдж (Stanley Goodspeed), Эд Харрис (General Francis X. Hummel), Джон Спенсер (F.B.I. Director Womack), Дэвид Морс (Major Tom Baxter), Уильям Форсайт (Ernest Paxton), Майкл Бин (Commander Anderson), Ванесса Марсил (Carla Pestalozzi), Джон К. МакГинли (Marine Captain Hendrix), Грегори Спорледер (Captain Frye), Тони Тодд (Captain Darrow), Букем Вудбайн (Sergeant Crisp)-Описание: Генерал элитных диверсионных спецсил США, за плечами которого опыт чуть ли не всех войн планеты, похищает со своими лучшими подчиненными ракеты со смертоносным газом и захватывает в заложники туристов в бывшей тюрьме «Алькатрас», находящейся на острове в бухте Сан-Франциско.
Они требуют по миллиону долларов семьям погибших и кругленькую сумму себе. Для того, чтобы обезвредить группу, из «Алькатраса» вытаскивают британского шпиона, когда-то совершившего побег из этой тюрьмы.
-
Доп. информация: Исходник Скала / The Rock (Майкл Бэй / Michael Bay) [1996 г., Боевик, триллер, приключения, Blu-ray disc 1080p]-Качество: Blu-ray Rip 1080p
Формат: MKV
Видео: MPEG-4 AVC (H264), High Profile 4.1, 1920x816, 23.976 fps, ~15900 kbps avg, bit/(pixel*frame) 0.420
Аудио №1: Russian: 48 kHz, AC3, 2.0 (L,R) ch, ~320.00 kbps avg //дублированный
Аудио №2: Russian: 48 kHz, DTS, 3/2 (L,C,R,l,r) + LFE ch, ~1510.00 kbps avg //многоголосый закадровый (Карусель)
Аудио №3: Russian: 48 kHz, DTS, 3/2 (L,C,R,l,r) + LFE ch, ~1510.00 kbps avg //одноголосый закадровый (А.Гаврилов)
Аудио №4: Russian: 48 kHz, DTS, 3/2 (L,C,R,l,r) + LFE ch, ~1510.00 kbps avg //одноголосый закадровый (Ю.Живов)
Аудио №5: Russian: 48 kHz, AC3, 2.0 (L,R) ch, ~192.00 kbps avg //одноголосый закадровый (С.Визгунов)
Аудио №6: Russian: 48 kHz, DTS, 3/2 (L,C,R,l,r) + LFE ch, ~1510.00 kbps avg //одноголосый закадровый (М.Яроцкий (kyberpunk))
Аудио №7: English: 48 kHz, DTS, 3/2 (L,C,R,l,r) + LFE ch, ~1510.00 kbps avg //оригинал
Аудио №8: English: 48 kHz, AC3, 2.0 (L,R) ch, ~320.00 kbps avg //комментарии
Субтитры: Russian forced (SRT), Russian forced (ASS), Russian full (SRT), Russian full (ASS), English full (SRT), English full (ASS), English SDH (SRT), English SDH (ASS), English commentary (SRT), English commentary (ASS)
Навигация по главам: есть-

СкриншотыMediaInfo
J:\The Rock [Скала] (1996) 1920x816 BDRip RusEngSubsChpt.mkv
General
Unique ID : 237712484563179940850874007543083426313 (0xB2D5C25C13D9519A95C660E4D907E209)
Complete name : J:\The Rock [Скала] (1996) 1920x816 BDRip RusEngSubsChpt.mkv
Format : Matroska
Format version : Version 4 / Version 2
File size : 23.5 GiB
Duration : 2h 16mn
Overall bit rate : 24.6 Mbps
Movie name : The Rock (-=RbM=-)
Encoded date : UTC 2014-05-01 16:45:29
Writing application : mkvmerge v6.6.0 ('The Edge Of The In Between') built on Dec 1 2013 17:55:00
Writing library : libebml v1.3.0 + libmatroska v1.4.1
Video #1
ID : 1
Format : AVC
Format/Info : Advanced Video Codec
Format profile : High@L4.1
Format settings, CABAC : Yes
Format settings, ReFrames : 5 frames
Codec ID : V_MPEG4/ISO/AVC
Duration : 2h 16mn
Bit rate : 15.8 Mbps
Width : 1 920 pixels
Height : 816 pixels
Display aspect ratio : 2.35:1
Frame rate mode : Constant
Frame rate : 23.976 fps
Color space : YUV
Chroma subsampling : 4:2:0
Bit depth : 8 bits
Scan type : Progressive
Bits/(Pixel*Frame) : 0.420
Stream size : 15.1 GiB (64%)
Title : The Rock (69% of the original)
Writing library : x264 core 142 r2409+41 9f37d41 tMod [8-bit@all X86_64]
Encoding settings : cabac=1 / ref=5 / deblock=1:-2:-2 / analyse=0x3:0x133 / me=umh / subme=11 / psy=1 / fade_compensate=0.00 / psy_rd=1.00:0.00 / mixed_ref=1 / me_range=32 / chroma_me=1 / trellis=2 / 8x8dct=1 / cqm=0 / deadzone=21,11 / fast_pskip=0 / chroma_qp_offset=-2 / threads=12 / lookahead_threads=3 / sliced_threads=0 / nr=0 / decimate=1 / interlaced=0 / bluray_compat=0 / constrained_intra=0 / fgo=0 / bframes=10 / b_pyramid=2 / b_adapt=2 / b_bias=0 / direct=3 / weightb=1 / open_gop=0 / weightp=2 / keyint=240 / keyint_min=23 / scenecut=40 / intra_refresh=0 / rc=crf / mbtree=0 / crf=18.4000 / qcomp=0.60 / qpmin=0:0:0 / qpmax=69:69:69 / qpstep=4 / ip_ratio=1.40 / pb_ratio=1.23 / aq=1:1.00 / aq-sensitivity=10.00 / aq-factor=1.00:1.00:1.00 / aq2=0 / aq3=0
Language : English
Default : Yes
Forced : No
Audio #2
ID : 2
Format : AC-3
Format/Info : Audio Coding 3
Mode extension : CM (complete main)
Format settings, Endianness : Big
Codec ID : A_AC3
Duration : 2h 16mn
Bit rate mode : Constant
Bit rate : 320 Kbps
Channel(s) : 2 channels
Channel positions : Front: L R
Sampling rate : 48.0 KHz
Bit depth : 16 bits
Compression mode : Lossy
Stream size : 313 MiB (1%)
Title : Dub AC3 2.0ch 320kbps
Language : Russian
Default : Yes
Forced : No
Audio #3
ID : 3
Format : DTS
Format/Info : Digital Theater Systems
Mode : 16
Format settings, Endianness : Big
Codec ID : A_DTS
Duration : 2h 16mn
Bit rate mode : Constant
Bit rate : 1 509 Kbps
Channel(s) : 6 channels
Channel positions : Front: L C R, Side: L R, LFE
Sampling rate : 48.0 KHz
Bit depth : 16 bits
Compression mode : Lossy
Stream size : 1.44 GiB (6%)
Title : MVO DTS 5.1ch 1510kbps (Карусель)
Language : Russian
Default : No
Forced : No
Audio #4
ID : 4
Format : DTS
Format/Info : Digital Theater Systems
Mode : 16
Format settings, Endianness : Big
Codec ID : A_DTS
Duration : 2h 16mn
Bit rate mode : Constant
Bit rate : 1 509 Kbps
Channel(s) : 6 channels
Channel positions : Front: L C R, Side: L R, LFE
Sampling rate : 48.0 KHz
Bit depth : 16 bits
Compression mode : Lossy
Stream size : 1.44 GiB (6%)
Title : AVO DTS 5.1ch 1510kbps (А.Гаврилов)
Language : Russian
Default : No
Forced : No
Audio #5
ID : 5
Format : DTS
Format/Info : Digital Theater Systems
Mode : 16
Format settings, Endianness : Big
Codec ID : A_DTS
Duration : 2h 16mn
Bit rate mode : Constant
Bit rate : 1 510 Kbps
Channel(s) : 6 channels
Channel positions : Front: L C R, Side: L R, LFE
Sampling rate : 48.0 KHz
Bit depth : 24 bits
Compression mode : Lossy
Stream size : 1.44 GiB (6%)
Title : AVO DTS 5.1ch 1510kbps (Ю.Живов)
Language : Russian
Default : No
Forced : No
Audio #6
ID : 6
Format : AC-3
Format/Info : Audio Coding 3
Mode extension : CM (complete main)
Format settings, Endianness : Big
Codec ID : A_AC3
Duration : 2h 16mn
Bit rate mode : Constant
Bit rate : 192 Kbps
Channel(s) : 2 channels
Channel positions : Front: L R
Sampling rate : 48.0 KHz
Bit depth : 16 bits
Compression mode : Lossy
Stream size : 188 MiB (1%)
Title : AVO AC3 2.0ch 192kbps (С.Визгунов)
Language : Russian
Default : No
Forced : No
Audio #7
ID : 7
Format : DTS
Format/Info : Digital Theater Systems
Mode : 16
Format settings, Endianness : Big
Codec ID : A_DTS
Duration : 2h 16mn
Bit rate mode : Constant
Bit rate : 1 509 Kbps
Channel(s) : 6 channels
Channel positions : Front: L C R, Side: L R, LFE
Sampling rate : 48.0 KHz
Bit depth : 24 bits
Compression mode : Lossy
Stream size : 1.44 GiB (6%)
Title : VO DTS 5.1ch 1510kbps (М.Яроцкий kyberpunk)
Language : Russian
Default : No
Forced : No
Audio #8
ID : 8
Format : DTS
Format/Info : Digital Theater Systems
Mode : 16
Format settings, Endianness : Big
Codec ID : A_DTS
Duration : 2h 16mn
Bit rate mode : Constant
Bit rate : 1 509 Kbps
Channel(s) : 6 channels
Channel positions : Front: L C R, Side: L R, LFE
Sampling rate : 48.0 KHz
Bit depth : 16 bits
Compression mode : Lossy
Stream size : 1.44 GiB (6%)
Title : Original DTS 5.1ch 1510kbps
Language : English
Default : No
Forced : No
Audio #9
ID : 9
Format : AC-3
Format/Info : Audio Coding 3
Mode extension : CM (complete main)
Format settings, Endianness : Big
Codec ID : A_AC3
Duration : 2h 16mn
Bit rate mode : Constant
Bit rate : 320 Kbps
Channel(s) : 2 channels
Channel positions : Front: L R
Sampling rate : 48.0 KHz
Bit depth : 16 bits
Compression mode : Lossy
Stream size : 313 MiB (1%)
Title : Original AC3 2.0ch 320kbps (commentary by Nicolas Cage)
Language : English
Default : No
Forced : No
Text #10
ID : 10
Format : UTF-8
Codec ID : S_TEXT/UTF8
Codec ID/Info : UTF-8 Plain Text
Title : forced SRT
Language : Russian
Default : Yes
Forced : No
Text #11
ID : 11
Format : ASS
Codec ID : S_TEXT/ASS
Codec ID/Info : Advanced Sub Station Alpha
Compression mode : Lossless
Title : forced ASS
Language : Russian
Default : No
Forced : No
Text #12
ID : 12
Format : UTF-8
Codec ID : S_TEXT/UTF8
Codec ID/Info : UTF-8 Plain Text
Title : full SRT
Language : Russian
Default : No
Forced : No
Text #13
ID : 13
Format : ASS
Codec ID : S_TEXT/ASS
Codec ID/Info : Advanced Sub Station Alpha
Compression mode : Lossless
Title : full ASS
Language : Russian
Default : No
Forced : No
Text #14
ID : 14
Format : UTF-8
Codec ID : S_TEXT/UTF8
Codec ID/Info : UTF-8 Plain Text
Title : full SRT
Language : English
Default : No
Forced : No
Text #15
ID : 15
Format : ASS
Codec ID : S_TEXT/ASS
Codec ID/Info : Advanced Sub Station Alpha
Compression mode : Lossless
Title : full ASS
Language : English
Default : No
Forced : No
Text #16
ID : 16
Format : UTF-8
Codec ID : S_TEXT/UTF8
Codec ID/Info : UTF-8 Plain Text
Title : full SDH SRT
Language : English
Default : No
Forced : No
Text #17
ID : 17
Format : ASS
Codec ID : S_TEXT/ASS
Codec ID/Info : Advanced Sub Station Alpha
Compression mode : Lossless
Title : full SDH ASS
Language : English
Default : No
Forced : No
Text #18
ID : 18
Format : UTF-8
Codec ID : S_TEXT/UTF8
Codec ID/Info : UTF-8 Plain Text
Title : commentary
Language : English
Default : No
Forced : No
Text #19
ID : 19
Format : ASS
Codec ID : S_TEXT/ASS
Codec ID/Info : Advanced Sub Station Alpha
Compression mode : Lossless
Title : commentary
Language : English
Default : No
Forced : No
Menu
00:00:00.000 : :Logos
00:00:33.242 : :Hummel's Promise
00:03:47.686 : :The Raid
00:07:55.517 : :October 1, 0900 Hours
00:14:15.772 : :Ranger Bob's Last Tour
00:16:16.475 : :In Harm's Way
00:24:57.079 : :Peach-Flavored Catechism
00:26:44.603 : :Ghosts of Alcatraz
00:28:41.762 : :Alcibiades of Alcatraz
00:39:43.631 : :It's All in the Wrists
00:43:39.742 : :An E-Ticket
00:49:39.810 : :32 Stenson Ave
00:53:46.932 : :Knowing the System
00:55:29.243 : :Justice
00:59:18.597 : :Fifteen Hours to Deadline
01:04:45.423 : :Mason's Old Flame
01:09:13.566 : :The Trembler
01:14:05.399 : :The Hanged Man
01:17:07.122 : :Need to Know
01:18:45.638 : :Rodent Problem
01:24:15.509 : :The Morgue
01:28:54.955 : :Off the Rack
01:34:31.332 : :A Vicious Patriotism
01:39:52.236 : :Zeus's Butthole
01:43:02.676 : :The Hour Is Approaching
01:46:27.548 : :Glass or Plastic
01:49:48.040 : :Aborted
01:52:59.106 : :Back to the Stone Age
01:57:06.561 : :Rocket Man
02:00:07.700 : :Green Smoke
02:06:15.651 : :Forget Maui
02:10:08.634 : :Fort Walton, Kansas, End Credits
x264 log
x264 [info]: frame I:1331 Avg QP:17.49 size:165716 PSNR Mean Y:46.27 U:50.77 V:52.24 Avg:47.27 Global:46.86
x264 [info]: frame P:44765 Avg QP:18.94 size:116534 PSNR Mean Y:44.82 U:51.20 V:52.85 Avg:45.96 Global:45.38
x264 [info]: frame B:150256 Avg QP:20.81 size: 74661 PSNR Mean Y:43.22 U:49.93 V:51.80 Avg:44.47 Global:43.90
x264 [info]: consecutive B-frames: 3.4% 3.7% 6.8% 21.2% 16.3% 31.0% 7.4% 6.0% 2.3% 1.3% 0.5%
x264 [info]: mb I I16..4: 3.5% 88.8% 7.7%
x264 [info]: mb P I16..4: 0.8% 37.7% 2.0% P16..4: 20.0% 26.2% 8.2% 0.9% 0.0% skip: 4.4%
x264 [info]: mb B I16..4: 0.1% 7.4% 0.2% B16..8: 40.6% 25.9% 6.1% direct:10.6% skip: 9.0% L0:45.5% L1:41.7% BI:12.9%
x264 [info]: 8x8 transform intra:93.8% inter:55.3%
x264 [info]: direct mvs spatial:100.0% temporal:0.0%
x264 [info]: coded y,uvDC,uvAC intra: 96.9% 79.3% 39.0% inter: 69.4% 40.2% 1.8%
x264 [info]: i16 v,h,dc,p: 52% 13% 8% 28%
x264 [info]: i8 v,h,dc,ddl,ddr,vr,hd,vl,hu: 8% 6% 9% 12% 15% 14% 12% 13% 12%
x264 [info]: i4 v,h,dc,ddl,ddr,vr,hd,vl,hu: 12% 7% 7% 9% 14% 14% 13% 11% 13%
x264 [info]: i8c dc,h,v,p: 33% 27% 21% 18%
x264 [info]: Weighted P-Frames: Y:24.3% UV:19.8%
x264 [info]: ref P L0: 44.0% 10.0% 23.4% 11.6% 9.2% 1.6% 0.2%
x264 [info]: ref B L0: 75.4% 17.2% 5.9% 1.5%
x264 [info]: ref B L1: 91.2% 8.8%
x264 [info]: SSIM Mean Y:0.9694960 (15.156db)
x264 [info]: PSNR Mean Y:43.605 U:50.222 V:52.043 Avg:44.826 Global:44.209 kb/s:16270.01
x264 [info]: encoded 196352 frames, 4.369 fps, 16270.01 kb/s, 15884 MB
x264 [info]: ended at Wed Apr 23 20:15:11 2014
x264 [info]: encoding duration 12:29:06

_________________
Показать сообщения:    

Текущее время: Сегодня 06:01

Часовой пояс: GMT



Вы не можете начинать темы
Вы не можете отвечать на сообщения
Вы не можете редактировать свои сообщения
Вы не можете удалять свои сообщения
Вы не можете голосовать в опросах
Вы не можете прикреплять файлы к сообщениям
Вы не можете скачивать файлы