Важное объявление!
У Нас Все раздачи мультитрекерные, при нуле пиров в релизах, можете смело вставать на закачку!
 
Автор Сообщение

HUNTER

Стаж:
4 года 4 месяца
Сообщений:
56798

Репутация: 101

[+] [-]
Вне форума [Профиль] [ЛС]

-
Год выпуска: 2012
Страна: Япония
Жанр: приключения
Продолжительность: ТВ-сериал, 12 эп. по 24 мин.
Выпуск: c 10.07.2012 по 25.09.2012-Перевод:
  • русские субтитры от Kasandra & Sora_P3_Heaven & sys3x (полные/вспомогательные) [1-6]
  • русские субтитры от AOS (полные/вспомогательные) [7-12]
    переводчики: Anku, midory-chan, Minai, shizoidal, редактор/оформление: sibion
-Режиссер: Ямасаки Осаму
Студия: Studio DEEN-Описание:
В середине XIX века железная рука сегунов Токугава ослабла, изоляция Японии кончилась – и общество раскололось по вопросу сохранения традиций и приобщения к западным ценностям. Мятеж южных кланов перерос в гражданскую войну, которую назвали Реставрацией Мэйдзи. Заполыхала вся страна, повеяло духом Эпохи Смут, когда сила, ум и верность могли вознести безвестного воина к вершинам власти. Возможно, с такими мыслями горстка самураев собралась в предместьях Киото, чтобы защищать «закон и порядок». Через несколько лет отряд станет известен всем, но пока еще они не знаменитое «новое ополчение», а всего лишь «защитники столицы», одни из многих искателей удачи…
Юный Рюносукэ Ибуки из разорившегося самурайского рода отличался от последнего бродяги лишь фамильным мечом. Отец умер в нищете, самого юношу избили и ограбили такие же ронины – в итоге парень возненавидел правительство и все воинское сословие. Его спас и приютил Сэридзава Камо – знатный самурай и учитель фехтования, решивший продвинуться на службе сегуну. Резкий и надменный Сэридзава велел Рюносукэ отслужить спасение в отряде, создаваемом им вместе с Исами Кондо. Так по иронии судьбы герой вернулся на путь меча и пошел по нему среди ярких и неординарных людей, раздираемых нешуточными страстями и жестким соперничеством. Итак, легенда о синсэнгуми начинается!
© Hollow, World Art-Информационные ссылки: AniDB || World Art || MAL-Качество: BDRip
Энкод: Winter - RG Pantheon
Тип видео: без хардсаба, без линковки
Формат: mkv
Видео: x264 (Hi10p), 1280x720, ~4800 Kbps, 23.976 fps
Аудио JAP: Vorbis, 48000Hz, ~256 Kbps, 2ch
Аудио RUS 1: AC3, 48000Hz, ~192 Kbps, 2ch (внешними файлами)
Аудио RUS 2: AC3, 48000Hz, ~192 Kbps, 2ch (внешними файлами)
Аудио RUS 3: AC3, 48000Hz, ~192 Kbps, 2ch (внешними файлами)-

Список озвучек в раздаче

  • двухголосая (муж./жен.) от Carrier88 & Orwald [1-6]
  • двухголосая (муж./жен.) от Near & Lali (Anifilm)
  • трехголосая от Zendos & Eladiel & Absurd (Anilibria)

Список эпизодов

01. Dawn of the Divine Warriors
02. Led by Destiny
03. Rules for a Pack of Wolves
04. The Blade Drenched in Blood
05. Stairway to the Blue Skies
06. Howling from the Darkness
07. Oath Made on the Wind Blowing over the Grass
08. The Shackles of Pandemonium
09. The Light of a Flashing Sword
10. The Brightly Burning Beacon
11. A Moonlit Night Filled with Flowers
12. The Great Dawn

Скриншоты


Подробные тех. данные

Общее
Уникальный идентификатор : 178056530858907223640967307896910812341 (0x85F470C1D269F3C0B3569E3B222C94B5)
Полное имя : Z:\Anime\720p\Hakuouki - Reimei-roku [BD] [720p]\[Winter] Hakuouki - Reimei-roku 05 [BDrip 1280x720 x264 Vorbis].mkv
Формат : Matroska
Версия формата : Version 2
Размер файла : 864 Мбайт
Продолжительность : 23 м.
Режим общего битрейта : Переменный
Общий поток : 5100 Кбит/сек
Дата кодирования : UTC 2014-03-20 19:21:57
Программа кодирования : mkvmerge v2.9.8 ('C'est le bon') built on Aug 13 2009 12:49:06
Библиотека кодирования : libebml v0.7.7 + libmatroska v0.8.1
Видео
Идентификатор : 1
Формат : AVC
Формат/Информация : Advanced Video Codec
Профиль формата : High 10@L4.1
Параметр CABAC формата : Да
Параметр ReFrames формата : 9 кадров
Идентификатор кодека : V_MPEG4/ISO/AVC
Продолжительность : 23 м.
Битрейт : 4743 Кбит/сек
Ширина : 1280 пикселей
Высота : 720 пикселей
Соотношение сторон : 16:9
Режим частоты кадров : Постоянный
Частота кадров : 23,976 кадра/сек
Цветовое пространство : YUV
Субдискретизация насыщенности : 4:2:0
Битовая глубина : 10 бит
Тип развёртки : Прогрессивная
Бит/(Пиксели*Кадры) : 0.215
Размер потока : 804 Мбайт (93%)
Библиотека кодирования : x264 core 132 r2309 3b1f1f7
Настройки программы : cabac=1 / ref=9 / deblock=1:-2:-2 / analyse=0x3:0x133 / me=umh / subme=9 / psy=1 / psy_rd=0.90:0.00 / mixed_ref=1 / me_range=24 / chroma_me=1 / trellis=2 / 8x8dct=1 / cqm=0 / deadzone=21,11 / fast_pskip=1 / chroma_qp_offset=-2 / threads=6 / lookahead_threads=1 / sliced_threads=0 / nr=0 / decimate=0 / interlaced=0 / bluray_compat=0 / constrained_intra=0 / bframes=8 / b_pyramid=2 / b_adapt=2 / b_bias=0 / direct=1 / weightb=1 / open_gop=0 / weightp=2 / keyint=250 / keyint_min=23 / scenecut=40 / intra_refresh=0 / rc=crf / mbtree=0 / crf=17.0 / qcomp=0.70 / qpmin=9 / qpmax=42 / qpstep=4 / ip_ratio=1.40 / pb_ratio=1.30 / aq=1:0.90
Default : Нет
Forced : Нет
Аудио
Идентификатор : 2
Формат : Vorbis
Параметр Floor формата : 1
Идентификатор кодека : A_VORBIS
Продолжительность : 23 м.
Вид битрейта : Переменный
Битрейт : 256 Кбит/сек
Каналы : 2 канала
Частота : 48,0 КГц
Метод сжатия : С потерями
Размер потока : 43,4 Мбайт (5%)
Библиотека кодирования : libVorbis (Omnipresent) (20120203 (Omnipresent))
Язык : Japanese
Default : Да
Forced : Нет
- -

Информация о релизе

  • Выбор видео, перевода, озвучки, а также типа сборки материала осуществляется релизером и не подлежит обсуждению. Если вы считаете, что раздаваемый материал противоречит правилам раздела "Аниме" rutracker.org, сообщите об этом одному из модераторов раздела.
  • В случае появления нового материала или же лучшего по качеству материала релизер оставляет за собой право обновить раздачу. В этом случае вам необходимо ознакомиться с изменениями (добавлениями) и перекачать торрент.
  • Данный релиз предназначен для просмотра на ПК. Воспроизведение на иных проигрывателях не гарантируется. Для просмотра рекомендуется Media Player Classic с установленным пакетом кодеков K-Lite.
  • Данный релиз содержит 10-битное видео (Hi10p). Для корректного воспроизведения обязательно используйте кодеки, поддерживающие 10-битное видео.
    Обсудить частные случаи проблем с воспроизведением и получить дополнительную информацию можно здесь.

  • Данный релиз предназначен для просмотра с внешними субтитрами и внешними звуковыми дорожками.
    • Для просмотра с внешней звуковой дорожкой нужно:
      перекинуть файлы .mka из папки "RUS Sound [<автор(ы) озвучки>]" в одну папку с видео и переключить звуковую дорожку в плеере при просмотре. Как это сделать в разных плеерах подробно описано здесь.

    • Для просмотра с субтитрами нужно:
      перекинуть файлы .ass из папки "RUS Subtitles [<автор(ы) перевода>]" в одну папку с видео - плеер подгрузит их автоматически при открытии видео.
  • Если у вас возникли проблемы с просмотром, не связанные с описанным выше, сообщите о них автору раздачи посредством сообщения в теме или ЛС Aglenn.

_________________
Показать сообщения:    

Текущее время: Сегодня 03:34

Часовой пояс: GMT



Вы не можете начинать темы
Вы не можете отвечать на сообщения
Вы не можете редактировать свои сообщения
Вы не можете удалять свои сообщения
Вы не можете голосовать в опросах
Вы не можете прикреплять файлы к сообщениям
Вы не можете скачивать файлы