Важное объявление!
У Нас Все раздачи мультитрекерные, при нуле пиров в релизах, можете смело вставать на закачку!
 
Автор Сообщение

HUNTER

Стаж:
4 года 4 месяца
Сообщений:
56734

Репутация: 101

[+] [-]
Вне форума [Профиль] [ЛС]

Система безопасности / Fail-Safe
Страна: США
Жанр: триллер, драма, приключения
Год выпуска: 1964
Продолжительность: 01:52:08
Перевод: Профессиональный (многоголосый закадровый) ТРК "Петербург - 5-й канал"
Cубтитры: английские
Оригинальная аудиодорожка: английский
Режиссер: Сидни Люмет / Sidney Lumet
В ролях: Дэн О’Херлихи, Уолтер Мэттау, Фрэнк Овертон, Эд Биннс, Фриц Уивер, Генри Фонда, Ларри Хэгмэн, Уильям Хансен, Расселл Харди, Расселл Коллинз
Описание: Компьютер военного ведомства США дает сбой, и пилоты ядерных бомбардировщиков получают команду атаковать Москву. Теперь экипажи самолетов не имеют права выходить в эфир, их единственная задача — выполнить миссию любой ценой. У президента США есть несколько часов, чтобы предотвратить надвигающуюся катастрофу.
Доп. информация:


За дорожку с переводом спасибо StudioRAK
Сэмпл: http://sendfile.su/1037027
Тип релиза: WEB-DL 720p
Контейнер: MKV
Видео: AVC, 1280x720, L3.1, 23.976fps, 4052kbps
Аудио 1: Russian: AC3, 48000Hz, 2ch, 192kbps
Аудио 2: English: AC3, 48000Hz, 2ch, 192kbps - DVD
Аудио 3: English: AAC, 48000Hz, 2ch, 118kbps - WEB-DL
Аудио 4: English: AC3, 48000Hz, 2ch, 192kbps - commentary with director Sidney Lumet
Формат субтитров: softsub (SRT)

MediaInfo

Общее
Уникальный идентификатор : 213988289888193191118529698955528631482 (0xA0FCA541161A8076A2B3569A64A5F4BA)
Полное имя : T:\Fail-Safe (WEB-DL 720p).mkv
Формат : Matroska
Версия формата : Version 4 / Version 2
Размер файла : 3,72 Гбайт
Продолжительность : 1 ч. 52 м.
Общий поток : 4743 Кбит/сек
Дата кодирования : UTC 2014-10-19 09:34:30
Программа кодирования : mkvmerge v6.9.1 ('Blue Panther') 64bit built on Apr 18 2014 18:23:38
Библиотека кодирования : libebml v1.3.0 + libmatroska v1.4.1
Видео
Идентификатор : 1
Формат : AVC
Формат/Информация : Advanced Video Codec
Профиль формата : High@L3.1
Параметр CABAC формата : Нет
Параметр ReFrames формата : 2 кадра
Идентификатор кодека : V_MPEG4/ISO/AVC
Продолжительность : 1 ч. 52 м.
Ширина : 1280 пикселей
Высота : 720 пикселей
Соотношение сторон : 16:9
Режим частоты кадров : Постоянный
Частота кадров : 23,976 кадра/сек
Цветовое пространство : YUV
Субдискретизация насыщенности : 4:2:0
Битовая глубина : 8 бит
Тип развёртки : Прогрессивная
Язык : English
Default : Да
Forced : Нет
Основные цвета : BT.709
Характеристики трансфера : BT.709
Коэффициенты матрицы : BT.709
Аудио #1
Идентификатор : 2
Формат : AC-3
Формат/Информация : Audio Coding 3
Расширение режима : CM (complete main)
Параметр Endianness формата : Big
Идентификатор кодека : A_AC3
Продолжительность : 1 ч. 52 м.
Вид битрейта : Постоянный
Битрейт : 192 Кбит/сек
Каналы : 2 канала
Расположение каналов : Front: L R
Частота : 48,0 КГц
Битовая глубина : 16 бит
Метод сжатия : С потерями
Размер потока : 154 Мбайт (4%)
Заголовок : 5 канал
Язык : Russian
Default : Да
Forced : Нет
Аудио #2
Идентификатор : 3
Формат : AC-3
Формат/Информация : Audio Coding 3
Расширение режима : CM (complete main)
Параметр Endianness формата : Big
Идентификатор кодека : A_AC3
Продолжительность : 1 ч. 52 м.
Вид битрейта : Постоянный
Битрейт : 192 Кбит/сек
Каналы : 2 канала
Расположение каналов : Front: L R
Частота : 48,0 КГц
Битовая глубина : 16 бит
Метод сжатия : С потерями
Размер потока : 154 Мбайт (4%)
Заголовок : DVD
Язык : English
Default : Нет
Forced : Нет
Аудио #3
Идентификатор : 4
Формат : AAC
Формат/Информация : Advanced Audio Codec
Профиль формата : LC
Идентификатор кодека : A_AAC
Продолжительность : 1 ч. 52 м.
Каналы : 2 канала
Расположение каналов : Front: L R
Частота : 48,0 КГц
Метод сжатия : С потерями
Заголовок : WEB-DL
Язык : English
Default : Нет
Forced : Нет
Аудио #4
Идентификатор : 5
Формат : AC-3
Формат/Информация : Audio Coding 3
Расширение режима : CM (complete main)
Параметр Endianness формата : Big
Идентификатор кодека : A_AC3
Продолжительность : 1 ч. 52 м.
Вид битрейта : Постоянный
Битрейт : 192 Кбит/сек
Каналы : 2 канала
Расположение каналов : Front: L R
Частота : 48,0 КГц
Битовая глубина : 16 бит
Метод сжатия : С потерями
Размер потока : 154 Мбайт (4%)
Заголовок : commentary with director Sidney Lumet
Язык : English
Default : Нет
Forced : Нет
Текст
Идентификатор : 6
Формат : UTF-8
Идентификатор кодека : S_TEXT/UTF8
Идентификатор кодека/Информация : UTF-8 Plain Text
Язык : English
Default : Нет
Forced : Нет
Меню
00:00:00.000 : en:Chapter 1
00:03:08.000 : en:Chapter 2
00:07:05.000 : en:Chapter 3
00:20:08.000 : en:Chapter 4
00:23:46.000 : en:Chapter 5
00:26:10.000 : en:Chapter 6
00:31:43.000 : en:Chapter 7
00:33:42.000 : en:Chapter 8
00:37:04.000 : en:Chapter 9
00:42:34.000 : en:Chapter 10
00:44:57.000 : en:Chapter 11
00:47:07.000 : en:Chapter 12
00:51:37.000 : en:Chapter 13
00:56:12.000 : en:Chapter 14
00:59:36.000 : en:Chapter 15
01:06:32.000 : en:Chapter 16
01:08:11.000 : en:Chapter 17
01:15:23.000 : en:Chapter 18
01:18:05.000 : en:Chapter 19
01:22:04.000 : en:Chapter 20
01:24:52.000 : en:Chapter 21
01:29:06.000 : en:Chapter 22
01:34:30.000 : en:Chapter 23
01:38:51.000 : en:Chapter 24
01:42:45.000 : en:Chapter 25
01:45:56.000 : en:Chapter 26
01:47:43.000 : en:Chapter 27
01:48:42.000 : en:Chapter 28

Скриншоты


_________________
Показать сообщения:    

Текущее время: Сегодня 18:25

Часовой пояс: GMT



Вы не можете начинать темы
Вы не можете отвечать на сообщения
Вы не можете редактировать свои сообщения
Вы не можете удалять свои сообщения
Вы не можете голосовать в опросах
Вы не можете прикреплять файлы к сообщениям
Вы не можете скачивать файлы