Важное объявление!
У Нас Все раздачи мультитрекерные, при нуле пиров в релизах, можете смело вставать на закачку!
 
Автор Сообщение

HUNTER

Стаж:
4 года 4 месяца
Сообщений:
56765

Репутация: 101

[+] [-]
Вне форума [Профиль] [ЛС]

-Система 100% достижения цели-

Год выпуска: 2010
Страна:
Сайт производителя: нет
Тематика: Бизнес, экономика и финансы
Тип материала: обучающее видео-Продолжительность: 13:42:14
Автор: Илья Ткачев-Язык: Русский
Субтитры: отсутствуют-Описание: Дом, семья, работа, зарплата, долги, двухнедельный отпуск раз в год (если повезет) - вас действительно устраивает такая жизнь?
Коль скоро вы оказались на этой странице - ответ очевиден: НЕТ!
Коль скоро вы до сих пор читаете это - очевидно, что Вы хотите изменить свою жизнь к лучшему но не знаете, что для этого можно сделать.
Позвольте представить вашему вниманию обучающий видеокурс известного в рунете коуча по личностному росту и изменению качества жизни - Ильи Ткачева «Система 100% достижения цели».
Видеокурс «Система 100% достижения цели» - это, без преувеличения, готовое решение Ваших проблем, которое вы, возможно, уже отчаялись найти. Это эффективный, простой и быстрый путь, к новому качеству отношений, карьеры, бизнеса, финансов и качества жизни вообще!
-Качество: DVDRip
Формат: AVI
Видео кодек: XviD
Аудио кодек: MPEG Layer 3
Видео: 608x336 (1.81:1), 25 fps, XviD MPEG-4 ~938 kbps avg, 0.18 bit/pixel
Аудио: 48 kHz, MPEG Layer 3, 2 ch, ~128.00 kbps avg-

Доп. информация

Видеокурс-Коуч программа «Система 100% достижения цели» это авторская система работы "на результат", авторская система трансформации жизни и достижения целей, с персональной ОБРАТНОЙ СВЯЗЬЮ с каждым из клиентов.
Помните, что продираясь к тем же результатам самостоятельно, путем проб и ошибок вы тратите драгоценные дни вашей жизни, ваше драгоценное время. А время -это единственная абсолютная величена - самый ценный, не восстановимый ресурс!

Содержание

В состав видеокурса и коуч-программы «Система 100% достижения цели» вошли следующие разделы:
* Как прекратить "откладывать жизнь на потом"
* Мышление
* Цели
* Работа и бизнес
* Деньги
* Время
* Энергия
* Отношения
* Лень
* Страх
* Получение новой информации
* Как получить максимум из уже имеющейся информации
* Что дальше?

MediaInfo

Код: copyText_writeLink('this.parentNode.parentNode.nextSibling.nextSibling'); General
Complete name : D:\обучение 25,12\Новая папка\Система 100% достижения цели\1_1.avi
Format : AVI
Format/Info : Audio Video Interleave
File size : 1.37 GiB
Duration : 3h 1mn
Overall bit rate : 1 076 Kbps
Writing application : VirtualDubMod 1.5.10.2 (build 2540/release)
Writing library : VirtualDubMod build 2540/release
Video
ID : 0
Format : MPEG-4 Visual
Format profile : Advanced Simple@L5
Format settings, BVOP : 1
Format settings, QPel : No
Format settings, GMC : No warppoints
Format settings, Matrix : Default (MPEG)
Muxing mode : Packed bitstream
Codec ID : XVID
Codec ID/Hint : XviD
Duration : 3h 1mn
Bit rate : 938 Kbps
Width : 608 pixels
Height : 336 pixels
Display aspect ratio : 16:9
Frame rate : 25.000 fps
Color space : YUV
Chroma subsampling : 4:2:0
Bit depth : 8 bits
Scan type : Progressive
Compression mode : Lossy
Bits/(Pixel*Frame) : 0.184
Stream size : 1.19 GiB (87%)
Writing library : XviD 1.2.0.dev47 (UTC 2006-11-01)
Audio
ID : 1
Format : MPEG Audio
Format version : Version 1
Format profile : Layer 3
Mode : Joint stereo
Mode extension : MS Stereo
Codec ID : 55
Codec ID/Hint : MP3
Duration : 3h 1mn
Bit rate mode : Constant
Bit rate : 128 Kbps
Channel(s) : 2 channels
Sampling rate : 48.0 KHz
Compression mode : Lossy
Stream size : 166 MiB (12%)
Alignment : Aligned on interleaves
Interleave, duration : 40 ms (1.00 video frame)
Interleave, preload duration : 504 ms
Writing library : LAME3.97
Encoding settings : -m j -V 4 -q 2 -lowpass 17 -b 128
- -

_________________
Показать сообщения:    

Текущее время: Сегодня 03:47

Часовой пояс: GMT



Вы не можете начинать темы
Вы не можете отвечать на сообщения
Вы не можете редактировать свои сообщения
Вы не можете удалять свои сообщения
Вы не можете голосовать в опросах
Вы не можете прикреплять файлы к сообщениям
Вы не можете скачивать файлы