Важное объявление!
У Нас Все раздачи мультитрекерные, при нуле пиров в релизах, можете смело вставать на закачку!
 
Автор Сообщение

HUNTER

Стаж:
4 года 4 месяца
Сообщений:
56809

Репутация: 101

[+] [-]
Вне форума [Профиль] [ЛС]

Синяя Птица-Год выпуска: 1970
Страна: СССР
Жанр: мультфильм, сатирическая сказка
Продолжительность: 00:49:57
Русские субтитры: нет
Режиссер: Василий Ливанов
Роли озвучили: Лия Ахеджакова, Людмила Гнилова, Татьяна Доронина, Владимир Кенигсон, Василий Ливанов, Рина Зелёная, Юрий Яковлев
Описание: Действие начинается в большом современном городе. В поисках пищи на рынке мальчик спасает бездомного Пса от жестокого продавца
Релиз:
Качество: DVDRip-AVC
Формат: MKV
Видео: 716x432 (2.35:1) @ 1018x432, 25.000 fps, AVC, ~1406 Kbps, 0.182 bits/pixel
Аудио: Russian, 48.0 KHz, AC3, 2 ch, 192 Kbps

Скриншоты

Тех.данные

MediaInfo

General
Unique ID : 242837296982124957137155460715343773303 (0xB6B0C31EB32B9EEE892DF9F0273BFE77)
Complete name : D:\Tor_MY\Синяя птица.mkv
Format : Matroska
Format version : Version 4 / Version 2
File size : 582 MiB
Duration : 49mn 57s
Overall bit rate : 1 630 Kbps
Movie name : Ptica.mkv by Nyc-2008
Encoded date : UTC 2014-02-13 10:11:49
Writing application : mkvmerge v6.7.0 ('Back to the Ground') 32bit built on Jan 8 2014 15:03:17
Writing library : libebml v1.3.0 + libmatroska v1.4.1
Video
ID : 1
Format : AVC
Format/Info : Advanced Video Codec
Format profile : High@L3.2
Format settings, CABAC : Yes
Format settings, ReFrames : 16 frames
Codec ID : V_MPEG4/ISO/AVC
Duration : 49mn 57s
Bit rate : 1 406 Kbps
Width : 716 pixels
Height : 432 pixels
Display aspect ratio : 2.35:1
Original display aspect ratio : 2.35:1
Frame rate mode : Constant
Frame rate : 25.000 fps
Color space : YUV
Chroma subsampling : 4:2:0
Bit depth : 8 bits
Scan type : Progressive
Bits/(Pixel*Frame) : 0.182
Stream size : 502 MiB (86%)
Writing library : x264 core 142 r2389kMod 956c8d8
Encoding settings : cabac=1 / ref=16 / deblock=1:-2:-1 / analyse=0x3:0x113 / me=umh / subme=10 / psy=1 / fade_compensate=0.00 / psy_rd=1.00:0.00 / mixed_ref=1 / me_range=24 / chroma_me=1 / trellis=2 / 8x8dct=1 / cqm=0 / deadzone=21,11 / fast_pskip=0 / chroma_qp_offset=-2 / threads=6 / lookahead_threads=1 / sliced_threads=0 / nr=0 / decimate=1 / interlaced=0 / bluray_compat=0 / constrained_intra=0 / fgo=0 / bframes=15 / b_pyramid=2 / b_adapt=2 / b_bias=0 / direct=1 / weightb=1 / open_gop=0 / weightp=2 / keyint=250 / keyint_min=25 / scenecut=40 / intra_refresh=0 / rc=crf / mbtree=0 / crf=18.0000 / qcomp=0.60 / qpmin=0 / qpmax=69 / qpstep=4 / ip_ratio=1.40 / pb_ratio=1.30 / aq=1:1.00
Default : Yes
Forced : No
Color primaries : BT.601 PAL
Transfer characteristics : BT.470 System B, BT.470 System G
Matrix coefficients : BT.601
Audio
ID : 2
Format : AC-3
Format/Info : Audio Coding 3
Mode extension : CM (complete main)
Format settings, Endianness : Big
Codec ID : A_AC3
Duration : 49mn 57s
Bit rate mode : Constant
Bit rate : 192 Kbps
Channel(s) : 2 channels
Channel positions : Front: L R
Sampling rate : 48.0 KHz
Bit depth : 16 bits
Compression mode : Lossy
Stream size : 68.6 MiB (12%)
Language : Russian
Default : Yes
Forced : No

x264log

x264 [info]: 716x432p 64:45 @ 25/1 fps (cfr)
x264 [info]: using SAR=64/45
x264 [info]: using cpu capabilities: MMX2 SSE2Fast SSSE3 SSE4.2 AVX
x264 [info]: profile High, level 3.2
x264 [info]: cabac=1 ref=16 deblock=1:-2:-1 analyse=0x3:0x113 me=umh subme=10 psy=1 fade_compensate=0.00 psy_rd=1.00:0.00 mixed_ref=1 me_range=24 chroma_me=1 trellis=2 8x8dct=1 cqm=0 deadzone=21,11 fast_pskip=0 chroma_qp_offset=-2 threads=6 lookahead_threads=1 sliced_threads=0 nr=0 decimate=1 interlaced=0 bluray_compat=0 constrained_intra=0 fgo=0 bframes=15 b_pyramid=2 b_adapt=2 b_bias=0 direct=1 weightb=1 open_gop=0 weightp=2 keyint=250 keyint_min=25 scenecut=40 intra_refresh=0 rc=crf mbtree=0 crf=18.0000 qcomp=0.60 qpmin=0 qpmax=69 qpstep=4 ip_ratio=1.40 pb_ratio=1.30 aq=1:1.00
x264 [info]: frame I:533 Avg QP:17.77 size: 43121
x264 [info]: frame P:17534 Avg QP:18.60 size: 15527
x264 [info]: frame B:56869 Avg QP:21.63 size: 4272
x264 [info]: consecutive B-frames: 2.1% 2.3% 8.0% 39.6% 16.8% 23.9% 4.3% 1.7% 0.5% 0.2% 0.1% 0.2% 0.0% 0.1% 0.1% 0.1%
x264 [info]: mb I I16..4: 2.7% 84.0% 13.3%
x264 [info]: mb P I16..4: 1.1% 11.1% 0.9% P16..4: 41.4% 28.0% 15.4% 0.0% 0.0% skip: 2.2%
x264 [info]: mb B I16..4: 0.1% 0.7% 0.1% B16..8: 32.9% 9.6% 3.3% direct:11.4% skip:41.9% L0:40.6% L1:42.8% BI:16.6%
x264 [info]: 8x8 transform intra:83.0% inter:66.6%
x264 [info]: coded y,uvDC,uvAC intra: 83.5% 69.4% 36.2% inter: 28.4% 21.9% 2.7%
x264 [info]: i16 v,h,dc,p: 65% 10% 8% 17%
x264 [info]: i8 v,h,dc,ddl,ddr,vr,hd,vl,hu: 15% 9% 19% 8% 9% 11% 9% 11% 11%
x264 [info]: i4 v,h,dc,ddl,ddr,vr,hd,vl,hu: 17% 8% 6% 9% 13% 16% 10% 12% 10%
x264 [info]: i8c dc,h,v,p: 35% 27% 28% 10%
x264 [info]: Weighted P-Frames: Y:56.8% UV:31.0%
x264 [info]: ref P L0: 38.6% 13.4% 10.9% 6.9% 5.2% 5.2% 4.1% 2.6% 2.1% 2.0% 1.8% 1.8% 1.6% 1.5% 1.4% 1.1%
x264 [info]: ref B L0: 74.2% 10.1% 3.6% 2.5% 1.9% 1.7% 1.3% 0.9% 0.7% 0.7% 0.6% 0.6% 0.5% 0.4% 0.3%
x264 [info]: ref B L1: 95.6% 4.4%
x264 [info]: kb/s:1436.32
x264 [info]: encoded 74936 frames, 8.55 fps, 1436.32 kb/s

_________________
Показать сообщения:    

Текущее время: Сегодня 18:19

Часовой пояс: GMT



Вы не можете начинать темы
Вы не можете отвечать на сообщения
Вы не можете редактировать свои сообщения
Вы не можете удалять свои сообщения
Вы не можете голосовать в опросах
Вы не можете прикреплять файлы к сообщениям
Вы не можете скачивать файлы