Важное объявление!
У Нас Все раздачи мультитрекерные, при нуле пиров в релизах, можете смело вставать на закачку!
 
Автор Сообщение

HUNTER

Стаж:
4 года 4 месяца
Сообщений:
56829

Репутация: 101

[+] [-]
Вне форума [Профиль] [ЛС]

-
Год выпуска: 2012
Страна: Япония
Жанр: комедия, мистика, драма
Продолжительность: полнометражный фильм, 108 мин.
Премьера: 28.12.2012-Перевод:
  • русские субтитры от GMC (полные/вспомогательные)
    редакторы: Nati, Pat-Rica, переводчик: St_Ranger
-Режиссер: Такахаси Ацуси
Студия: A-1 Pictures Inc.-Описание:
15-летний Рин Окумура с раннего детства был хулиганом – буйным, вспыльчивым, готовым на все, чтобы отстоять свои «понятия». Парня сдерживало лишь влияние приемного отца-священника, да еще общение с братом-близнецом Юкио. Тем не менее, за стенами монастыря, где жили братья, старшего звали не иначе как «отродьем демона». Увы, звали пророчески – Рин оказался сыном Сатаны, правителя Геенны, который создал сосуд для своего явления в Ассию – материальный мир. Иерархи Церкви хотели уничтожить близнецов Окумура после рождения, но влиятельный отец Фудзимото поклялся воспитать их как людей и не отдавать адским силам. Вот только против Князя Тьмы любая вера бессильна – Сатана, явившийся за сыном, убил его опекуна и удалился, заявив, что никуда парень теперь не денется.
И что теперь? Приемного отца нет, дом в руинах, а за Рином, показавшим свою демоническую природу, явились чистильщики из ордена экзорцистов. Но вместо смертельной битвы сын Сатаны пожелал стать… одним из них! Перед такой шуткой судьбы не смогли устоять даже суровые бойцы с демонами, в итоге Рин отправился в магическую академию Истинного Креста, чтобы поднабраться сил и знаний для серьезного объяснения с «папашей». Путь молодому экзорцисту предстоит долгий, но ведь сказано: «Противитеся же диаволу, и бежит от вас!»
© Hollow, World Art
"В Академии Истинного креста накануне великого праздника, который отмечается раз в 11 лет, царит приподнятая и воодушевленная атмосфера. В это же время Окумура Рин назначен ответственным за проведение операции по "принуждению к миру" безумного поезда-призрака. В самый разгар этой миссии он встречает демона, принявшего вид маленького мальчика."-Информационные ссылки: AniDB || World Art || MAL-Качество: BDRip
Энкод: Winter - RG Pantheon
Тип видео: без хардсаба, без линковки
Формат: mkv
Видео: x264 (Hi10p), 1280x720, ~5600 Kbps, 23.976 fps
Аудио JAP: AC3, 48000Hz, ~640 Kbps, 5.1ch
Аудио RUS 1: AC3, 48000Hz, ~192 Kbps, 2ch (внешним файлом)
Аудио RUS 2: AC3, 48000Hz, ~640 Kbps, 5.1ch (внешним файлом)
Аудио RUS 3: AC3, 48000Hz, ~384 Kbps, 5.1ch (внешним файлом)
Аудио RUS 4: AC3, 48000Hz, ~640 Kbps, 5.1ch (внешним файлом)
Аудио RUS 5: AAC, 48000Hz, ~192 Kbps, 2ch (внешним файлом)-

Список озвучек в раздаче

  • одноголосая (жен.) от Persona99 (GetSmart)
  • двухголосая (муж./жен.) от Ancord & NikaLenina (AniDub)
  • двухголосая (муж./жен.) от loster01 & Emeri (LE-production)
  • двухголосая (муж./жен.) от Zendos & Eladiel (Anilbria)
  • многоголосая от SHIZA Project
    участники: Nami_Li, NesTea, Nyasheek, SakaE, San4Ees, Андрюшка, Лизавета

Отличия от других раздач

http://rutracker.org/forum/viewtopic.php?t=4508524
- наличие озвучки
http://rutracker.org/forum/viewtopic.php?t=4514791
- лучшее качество видео

Сравнения

там

тут
http://rutracker.org/forum/viewtopic.php?t=4515081
- лучшее качество видео

Сравнения

там

тут
http://rutracker.org/forum/viewtopic.php?t=4517090
- лучшее качество видео

Сравнения

там

тут
-http://rutracker.org/forum/viewtopic.php?t=4517400
http://rutracker.org/forum/viewtopic.php?t=4508530
- 720p

Скриншоты


Подробные тех. данные

Общее
Уникальный идентификатор : 250836552427375734254764537140088773824 (0xBCB55CDCF74E4CFFAFED6B1E9F8D9CC0)
Полное имя : Z:\Anime\720p\Ao no Exorcist Gekijouban [BD] [720p]\[Winter] Ao no Exorcist Gekijouban [BDrip 1280x720 x264 Vorbis].mkv
Формат : Matroska
Версия формата : Version 2
Размер файла : 3,96 Гбайт
Продолжительность : 1 ч. 28 м.
Общий поток : 6387 Кбит/сек
Дата кодирования : UTC 2013-08-23 07:01:43
Программа кодирования : mkvmerge v2.9.8 ('C'est le bon') built on Aug 13 2009 12:49:06
Библиотека кодирования : libebml v0.7.7 + libmatroska v0.8.1
Видео
Идентификатор : 1
Формат : AVC
Формат/Информация : Advanced Video Codec
Профиль формата : High 10@L4.1
Параметр CABAC формата : Да
Параметр ReFrames формата : 9 кадров
Идентификатор кодека : V_MPEG4/ISO/AVC
Продолжительность : 1 ч. 28 м.
Битрейт : 5620 Кбит/сек
Ширина : 1280 пикселей
Высота : 720 пикселей
Соотношение сторон : 16:9
Режим частоты кадров : Постоянный
Частота кадров : 23,976 кадра/сек
Цветовое пространство : YUV
Субдискретизация насыщенности : 4:2:0
Битовая глубина : 10 бит
Тип развёртки : Прогрессивная
Бит/(Пиксели*Кадры) : 0.254
Размер потока : 3,49 Гбайт (88%)
Библиотека кодирования : x264 core 132 r2309 3b1f1f7
Настройки программы : cabac=1 / ref=9 / deblock=1:-2:-2 / analyse=0x3:0x133 / me=tesa / subme=9 / psy=1 / psy_rd=0.90:0.00 / mixed_ref=1 / me_range=24 / chroma_me=1 / trellis=2 / 8x8dct=1 / cqm=0 / deadzone=21,11 / fast_pskip=1 / chroma_qp_offset=-2 / threads=6 / lookahead_threads=1 / sliced_threads=0 / nr=0 / decimate=0 / interlaced=0 / bluray_compat=0 / constrained_intra=0 / bframes=8 / b_pyramid=2 / b_adapt=2 / b_bias=0 / direct=1 / weightb=1 / open_gop=0 / weightp=2 / keyint=250 / keyint_min=23 / scenecut=40 / intra_refresh=0 / rc=crf / mbtree=0 / crf=14.0 / qcomp=0.70 / qpmin=9 / qpmax=40 / qpstep=4 / ip_ratio=1.40 / pb_ratio=1.30 / aq=1:0.90
Default : Нет
Forced : Нет
Аудио
Идентификатор : 2
Формат : AC-3
Формат/Информация : Audio Coding 3
Расширение режима : CM (complete main)
Параметр Endianness формата : Big
Идентификатор кодека : A_AC3
Продолжительность : 1 ч. 28 м.
Вид битрейта : Постоянный
Битрейт : 640 Кбит/сек
Каналы : 6 каналов
Расположение каналов : Front: L C R, Side: L R, LFE
Частота : 48,0 КГц
Битовая глубина : 16 бит
Метод сжатия : С потерями
Размер потока : 406 Мбайт (10%)
Язык : Japanese
Default : Да
Forced : Нет
- -

Информация о релизе

  • Выбор видео, перевода, озвучки, а также типа сборки материала осуществляется релизером и не подлежит обсуждению. Если вы считаете, что раздаваемый материал противоречит правилам раздела "Аниме" rutracker.org, сообщите об этом одному из модераторов раздела.
  • В случае появления нового материала или же лучшего по качеству материала релизер оставляет за собой право обновить раздачу. В этом случае вам необходимо ознакомиться с изменениями (добавлениями) и перекачать торрент.
  • Данный релиз предназначен для просмотра на ПК. Воспроизведение на иных проигрывателях не гарантируется. Для просмотра рекомендуется Media Player Classic с установленным пакетом кодеков K-Lite.
  • Данный релиз содержит 10-битное видео (Hi10p). Для корректного воспроизведения обязательно используйте кодеки, поддерживающие 10-битное видео.
    Обсудить проблемы с воспроизведением и получить дополнительную информацию можно здесь.

  • Данный релиз предназначен для просмотра с внешними субтитрами и внешними звуковыми дорожками.
    • Для просмотра с внешней звуковой дорожкой нужно:
      перекинуть файлы .mka из папки "RUS Sound [<автор(ы) озвучки>]" в одну папку с видео и переключить звуковую дорожку в плеере при просмотре. Как это сделать в разных плеерах подробно описано здесь.

    • Для просмотра с субтитрами нужно:
      перекинуть файлы .ass из папки "RUS Subtitles [<автор(ы) перевода>]" в одну папку с видео - плеер подгрузит их автоматически при открытии видео.
  • Если у вас возникли проблемы с просмотром, не связанные с описанным выше, сообщите о них автору раздачи посредством сообщения в теме или ЛС Aglenn.

_________________
Показать сообщения:    

Текущее время: Сегодня 13:14

Часовой пояс: GMT



Вы не можете начинать темы
Вы не можете отвечать на сообщения
Вы не можете редактировать свои сообщения
Вы не можете удалять свои сообщения
Вы не можете голосовать в опросах
Вы не можете прикреплять файлы к сообщениям
Вы не можете скачивать файлы