Важное объявление!
У Нас Все раздачи мультитрекерные, при нуле пиров в релизах, можете смело вставать на закачку!
 
Автор Сообщение

HUNTER

Стаж:
4 года 4 месяца
Сообщений:
56798

Репутация: 101

[+] [-]
Вне форума [Профиль] [ЛС]

Синдром дракона-
Год выпуска:2012
Страна: Россия, Украина, кинокомпания "RUmedia", ДАНИАН-ФИЛЬМ, АВРОРА
Жанр: Детектив, психологический триллер
Продолжительность: 12x~ 00:49:55
Кол-во серий: 01-12 из 12
Перевод: Не требуется
Субтитры: Отсутствуют-Режиссёр: Николай Хомерики
В ролях: Дмитрий Муляр, Андрей Мерзликин, Лев Борисов, Екатерина Климова, Леонид Бичевин, Кристина Асмус, Карина Андоленко, Елена Шевченко, Алексей Гуськов, Юрий Цурило, Алексей Серебряков, Карэн Бадалов, Даниил Спиваковский, Борис Каморзин, Александр Ивашкевич, Людмила Чурсина, Ольга Чурсина, Александр Семчев, Алексей Кравченко, Никита Емшанов, Артём Ткаченко, Даниил Белых, Юрий Беляев, Владимир Капустин (II), Сергей Романюк, Павел Майков, Наталья Романычева, Владимир Ямненко, Иван Иванов (V), Олеся Железняк, Александр Феклистов, Маргарита Шубина, Инна Королёва, Ольга Аросева, Владимир Зельдин, Юрий Яковлев-Суханов, Николай Пономаренко, Юрий Назаров, Виктор Сарайкин, Николай Алипа, Андрей Межулис, Борис Токарев (II), Александр Игнатуша, Наталья Доля, Виолетта Трикова-Описание: 2008 год. На Одесской таможне задерживают курьера с ценным раритетом - книгой "Морской устав". Расследовать дело поручают оперативной группе: полковник Запорожец, подполковник Щеголева, капитан Волков.
1953 год. Высокопоставленные чиновники ЦК решают создать сокровищницу из принадлежащих им художественных и исторических ценностей, награбленных после революции и во время Второй Мировой войны. Охранять коллекцию приставлены чекист Терехов и бывший заключенный, изменник Родины, а в прошлом реставратор, по фамилии Нилин.-Качество: SATRip
Формат: AVI
Видео кодек: XviD
Аудио кодек: MPEG Layer 3
Видео: 720x400 (1.80:1), 25 fps, XviD build 64, 1 288 Kbps avg, 0.179 bit/pixel
Аудио: 48 kHz, MPEG Layer 3, 2 ch, ~192.00 kbps avg-

MediaInfo

Код: copyText_writeLink('this.parentNode.parentNode.nextSibling.nextSibling'); General
Format : AVI
Format/Info : Audio Video Interleave
File size : 550 MiB
Duration : 51mn 42s
Overall bit rate : 1 487 Kbps
Writing application : VirtualDubMod 1.5.4.1 (build 2178/release)
Writing library : VirtualDubMod build 2178/release
Video
ID : 0
Format : MPEG-4 Visual
Format profile : Advanced Simple@L5
Format settings, BVOP : 1
Format settings, QPel : No
Format settings, GMC : No warppoints
Format settings, Matrix : Custom
Codec ID : XVID
Codec ID/Hint : XviD
Duration : 51mn 42s
Bit rate : 1 288 Kbps
Width : 720 pixels
Height : 400 pixels
Display aspect ratio : 16:9
Frame rate : 25.000 fps
Color space : YUV
Chroma subsampling : 4:2:0
Bit depth : 8 bits
Scan type : Progressive
Compression mode : Lossy
Bits/(Pixel*Frame) : 0.179
Stream size : 476 MiB (87%)
Writing library : XviD 64
Audio
ID : 1
Format : MPEG Audio
Format version : Version 1
Format profile : Layer 3
Mode : Joint stereo
Mode extension : MS Stereo
Codec ID : 55
Codec ID/Hint : MP3
Duration : 51mn 42s
Bit rate mode : Constant
Bit rate : 192 Kbps
Channel(s) : 2 channels
Sampling rate : 48.0 KHz
Compression mode : Lossy
Stream size : 71.0 MiB (13%)
Alignment : Aligned on interleaves
Interleave, duration : 80 ms (2.00 video frames)
Interleave, preload duration : 504 ms
Writing library : LAME3.98r
Encoding settings : -m j -V 4 -q 2 -lowpass 18.6 -b 192

Скриншоты


_________________
Показать сообщения:    

Текущее время: Сегодня 01:30

Часовой пояс: GMT



Вы не можете начинать темы
Вы не можете отвечать на сообщения
Вы не можете редактировать свои сообщения
Вы не можете удалять свои сообщения
Вы не можете голосовать в опросах
Вы не можете прикреплять файлы к сообщениям
Вы не можете скачивать файлы