Важное объявление!
У Нас Все раздачи мультитрекерные, при нуле пиров в релизах, можете смело вставать на закачку!
 
Автор Сообщение

HUNTER

Стаж:
4 года 4 месяца
Сообщений:
56848

Репутация: 101

[+] [-]
Вне форума [Профиль] [ЛС]

Синдбад / Sinbad
Страна: Япония, США
Жанр: аниме, мультфильм, фэнтези, приключения, семейный
Продолжительность: 00:46:16
Год выпуска: 1992
Перевод 1: Профессиональный (дублированный) Варус Видео
Перевод 2: Профессиональный (многоголосый закадровый) Студия Инис по заказу Союз-видео
Русские субтитры: нет
Режиссёр: Масаказу Хигучи / Masakazu Higuchi
Роли озвучивали: Рик Джонс, Грегг Бергер, Кори Бертон
Описание: На долю легендарного Синдбада-морехода выпало немало приключений. Но сколько бы опасностей не стояло на пути — Синдбад преодолеет их все, чтобы достичь своей цели. Судьба все время испытывает силу воли, храбрость и удачу знаменитого героя Востока. И его очередное путешествие не исключение.
Свирепые драконы, голодные великаны, орды жестоких воинов и гигантские змеи ждут Синдбада в пути. Но и эти препятствия не остановят неустрашимого героя в его погоне за птицей счастья. Ведь звезда удачи всегда сияет над кораблем Синдбада, освещая полный приключений и опасностей путь знаменитого аравийского моряка к заветной мечте!

Качество: DVDRip
Формат: AVI
Видео: Xvid, 656x512 (1.28:1), 25 fps, XviD build 73 ~1818 kbps avg, 0.22 bit/pixel
Аудио №1: АС3, 48 kHz, AC3 Dolby Digital, 2/0 (L,R) ch, ~192 kbps Дубляж
Аудио №2: АС3, 48 kHz, AC3 Dolby Digital, 2/0 (L,R) ch, ~192 kbps Инис
Субтитры: отсутствуют
Спасибо
за Дубляж спасибо vanotachmasjan90
Подробные технические данные
Полное имя : Синдбад.aviФормат : AVIФормат/Информация : Audio Video InterleaveРазмер файла : 734 МбайтПродолжительность : 46 м.Общий поток : 2218 Кбит/секРежиссёр : Liverpool.YNWA!!!Программа кодирования : VirtualDubMod 1.5.10.2 (build 2540/release)
ВидеоИдентификатор : 0Формат : MPEG-4 VisualПрофиль формата : Advanced Simple@L5Параметр BVOP формата : 2Параметр QPel формата : НетПараметр GMC формата : Без точки переходаПараметр матрицы формата : Default (H.263)Идентификатор кодека : XVIDИдентификатор кодека/Подсказка : XviDПродолжительность : 46 м.Битрейт : 1819 Кбит/секШирина : 656 пикселейВысота : 512 пикселейСоотношение сторон : 1,281Частота кадров : 25,000 кадров/секЦветовое пространство : YUVСубдискретизация насыщенности : 4:2:0Битовая глубина : 8 битТип развёртки : ПрогрессивнаяМетод сжатия : С потерямиБит/(Пиксели*Кадры) : 0.217Размер потока : 602 Мбайт (82%)Библиотека кодирования : XviD 73
Аудио #1Идентификатор : 1Формат : AC-3Формат/Информация : Audio Coding 3Расширение режима : CM (complete main)Параметр Endianness формата : BigИдентификатор кодека : 2000Продолжительность : 46 м.Вид битрейта : ПостоянныйБитрейт : 192 Кбит/секКаналы : 2 каналаРасположение каналов : Front: L RЧастота : 48,0 КГцБитовая глубина : 16 битМетод сжатия : С потерямиРазмер потока : 63,5 Мбайт (9%)Выравнивание : Разделение по промежуткамПродолжительность промежутка : 40 мс. (1,00 видеокадр)Время предзагрузки промежутка : 500 мс.
Аудио #2Идентификатор : 2Формат : AC-3Формат/Информация : Audio Coding 3Расширение режима : CM (complete main)Параметр Endianness формата : BigИдентификатор кодека : 2000Продолжительность : 46 м.Вид битрейта : ПостоянныйБитрейт : 192 Кбит/секКаналы : 2 каналаРасположение каналов : Front: L RЧастота : 48,0 КГцБитовая глубина : 16 битМетод сжатия : С потерямиРазмер потока : 63,5 Мбайт (9%)Выравнивание : Разделение по промежуткамПродолжительность промежутка : 40 мс. (1,00 видеокадр)Время предзагрузки промежутка : 500 мс.
Скриншоты

_________________
Показать сообщения:    

Текущее время: Сегодня 22:28

Часовой пояс: GMT



Вы не можете начинать темы
Вы не можете отвечать на сообщения
Вы не можете редактировать свои сообщения
Вы не можете удалять свои сообщения
Вы не можете голосовать в опросах
Вы не можете прикреплять файлы к сообщениям
Вы не можете скачивать файлы
Наши партнеры: интернет магазин Ивановского трикотажа textilla.ru