Важное объявление!
У Нас Все раздачи мультитрекерные, при нуле пиров в релизах, можете смело вставать на закачку!
 
Автор Сообщение

HUNTER

Стаж:
4 года 4 месяца
Сообщений:
56733

Репутация: 101

[+] [-]
Вне форума [Профиль] [ЛС]

Синбад: Завеса туманов / Синбад: За завесой тумана / Sinbad: Beyond the Veil of Mists
Страна: Индия, США
Жанр: мультфильм
Продолжительность: 01:22:18
Год выпуска: 2000
Перевод: Авторский (одноголосый закадровый) Сергей Визгунов
Русские субтитры: нет
Режиссёр: Ивэн Рикс / Evan Ricks, Алан Джейкобс / Alan Jacobs
Роли озвучивали: Элис Эмтер, Клинт Кармайкл, Брендан Фрейзер, Дженнифер Хейл, Марк Хэмилл, К.В. Миллер, Роберт Аллен Мюкс, Леонард Нимой, Джон Рис-Дэвис, Джефф Уолвертон
Описание: От таинственных незнакомцев нельзя ждать добра! Увы, об этом забыла прекрасная принцесса Сирина. Найдя на берегу моря измученного чужестранца, она приютила его во дворце, не догадываясь, что ее гость лелеет коварные планы. С помощью волшебного зелья злобный колдун Барака поменялся обликом с отцом Сирины, мудрым королем Акроном. Теперь единственная надежда Сирины — страница из волшебной книги Бараки, где сказано, что только снадобье из неведомой Страны Завесы Туманов снимет страшное заклятье с ее отца. Вскоре принцесса вместе с отважным мореплавателем Синбадом отправится на край света, чтобы, пережив удивительные приключения и суровые испытания, спасти короля и его владения из плена жестокого самозванца. Что ждет их впереди?
Доп. информация: Дорожка с С. Визгуновым синхронизирована и наложена ale_x2008 при помощи Adobe Audition, Sony Vegas и VirtualDubMod.
За оцифрованную с VHS дорожку благодарим - alenavova

Релиз
Семпл: https://yadi.sk/i/VMx2X_A1wtQbY
Качество: DVDRip
Формат: AVI
Видео: XviD build 73, 704x528 (1.33:1), 25.00 fps, 1750 kbps avg, 0.19 bit/pixel
Аудио: AC3 Dolby Digital, 48000Hz, 2/0 (L,R) ch (mono), 192.00 kbps avg [AVO]
Аудио 2: AC3 Dolby Digital, 48000Hz, 3/2 (L,C,R,l,r) + LFE ch, 448.00 kbps avg [Eng]
Субтитры: отсутствуют

Подробные технические данные

Синбад - Завеса туманов - Sinbad - Beyond the Veil of Mists (by ale_x2008).aviFormat : AVIFormat/Info : Audio Video InterleaveFile size : 1.38 GiBDuration : 1 h 22 minOverall bit rate : 2 406 kb/sMovie name : Синбад - Завеса туманов - Sinbad - Beyond the Veil of Mists (by ale_x2008)Director : by ale_x2008Writing application : VirtualDubMod 1.5.10.3 (build 2550/release)Copyright : Edich2Comment : RuTracker.org
VideoID : 0Format : MPEG-4 VisualFormat profile : Advanced Simple@L5Format settings, BVOP : 2Format settings, QPel : NoFormat settings, GMC : No warppointsFormat settings, Matrix : CustomCodec ID : XVIDCodec ID/Hint : XviDDuration : 1 h 22 minBit rate : 1 752 kb/sWidth : 704 pixelsHeight : 528 pixelsDisplay aspect ratio : 4:3Frame rate : 25.000 FPSColor space : YUVChroma subsampling : 4:2:0Bit depth : 8 bitsScan type : ProgressiveCompression mode : LossyBits/(Pixel*Frame) : 0.189Stream size : 1.01 GiB (73%)Writing library : XviD 73
Audio #1ID : 1Format : AC-3Format/Info : Audio Coding 3Mode extension : CM (complete main)Format settings, Endianness : BigCodec ID : 2000Duration : 1 h 22 minBit rate mode : ConstantBit rate : 192 kb/sChannel(s) : 2 channelsChannel positions : Front: L RSampling rate : 48.0 kHzFrame rate : 31.250 FPS (1536 spf)Compression mode : LossyStream size : 113 MiB (8%)Alignment : Split accross interleavesInterleave, duration : 40 ms (1.00 video frame)Interleave, preload duratio : 500 ms
Audio #2ID : 2Format : AC-3Format/Info : Audio Coding 3Mode extension : CM (complete main)Format settings, Endianness : BigCodec ID : 2000Duration : 1 h 22 minBit rate mode : ConstantBit rate : 448 kb/sChannel(s) : 6 channelsChannel positions : Front: L C R, Side: L R, LFESampling rate : 48.0 kHzFrame rate : 31.250 FPS (1536 spf)Compression mode : LossyStream size : 264 MiB (19%)Alignment : Split accross interleavesInterleave, duration : 40 ms (1.00 video frame)Interleave, preload duratio : 500 ms

Скриншоты



_________________
Показать сообщения:    

Текущее время: Сегодня 18:47

Часовой пояс: GMT



Вы не можете начинать темы
Вы не можете отвечать на сообщения
Вы не можете редактировать свои сообщения
Вы не можете удалять свои сообщения
Вы не можете голосовать в опросах
Вы не можете прикреплять файлы к сообщениям
Вы не можете скачивать файлы