Важное объявление!
У Нас Все раздачи мультитрекерные, при нуле пиров в релизах, можете смело вставать на закачку!
 
Автор Сообщение

HUNTER

Стаж:
4 года 4 месяца
Сообщений:
56765

Репутация: 101

[+] [-]
Вне форума [Профиль] [ЛС]

Симпсоны в кино / The Simpsons Movie
-Страна: США
Жанр: мультфильм, комедия, приключения
Продолжительность: 01:26:44
Год выпуска: 2007
Перевод: Любительский (одноголосый закадровый) v.serij2013-Режиссёр: Дэвид Силверман / David Silverman-Роли озвучивали: Дэн Кастелланета, Джули Кавнер, Нэнси Картрайт, Ярдли Смит, Гарри Ширер, Хэнк Азария, Марсия Уоллес, Билли Джо Армстронг, Тре Кул, Майк Дирнт-Описание: После того, как Гомер сбросил отходы в водохранилище, Спрингфилд объявили карантинной зоной и накрыли гигантским стеклянным колпаком, а местные жители ополчились на Симпсонов за то, что их отрезали от остального мира…
-

Доп. информация

Это, так называемая, полноэкранная FullScreen версия фильма, не выходящая во всех видеопрокатах России.
-Качество: DVDRip
Формат: AVI
Видео: DivX 5, 640x480 (4:3), 23.976 fps, ~953 kbps, 0.129 bit/pixel
Аудио: AC3, 48kHz, 2 ch, 256 kbps
-

Скриншоты

Media Info

Код:
General
Complete name                    : F:\Мои документы\Вадим\Моё видео (Вадим)\SD\The Simpsons Movie (DVDRip l FullScreen l v.serij2013).avi
Format                           : AVI
Format/Info                      : Audio Video Interleave
File size                        : 756 MiB
Duration                         : 1h 26mn
Overall bit rate                 : 1 219 Kbps
Writing application              : VirtualDubMod 1.5.10.2 (build 2540/release)
Writing library                  : VirtualDubMod build 2540/release
Video
ID                               : 0
Format                           : MPEG-4 Visual
Format profile                   : Advanced Simple@L5
Format settings, BVOP            : Yes
Format settings, QPel            : No
Format settings, GMC             : No warppoints
Format settings, Matrix          : Default (H.263)
Muxing mode                      : Packed bitstream
Codec ID                         : DX50
Codec ID/Hint                    : DivX 5
Duration                         : 1h 26mn
Bit rate                         : 953 Kbps
Width                            : 640 pixels
Height                           : 480 pixels
Display aspect ratio             : 4:3
Frame rate                       : 23.976 fps
Color space                      : YUV
Chroma subsampling               : 4:2:0
Bit depth                        : 8 bits
Scan type                        : Progressive
Compression mode                 : Lossy
Bits/(Pixel*Frame)               : 0.129
Stream size                      : 591 MiB (78%)
Writing library                  : XviD 1.1.2 (UTC 2006-11-01)
Audio
ID                               : 1
Format                           : AC-3
Format/Info                      : Audio Coding 3
Mode extension                   : CM (complete main)
Codec ID                         : 2000
Duration                         : 1h 26mn
Bit rate mode                    : Constant
Bit rate                         : 256 Kbps
Channel(s)                       : 2 channels
Channel positions                : Front: L R
Sampling rate                    : 48.0 KHz
Bit depth                        : 16 bits
Compression mode                 : Lossy
Stream size                      : 159 MiB (21%)
Alignment                        : Split accross interleaves
Interleave, duration             : 42 ms (1.00 video frame)
Interleave, preload duration     : 500 ms
-

_________________
Показать сообщения:    

Текущее время: Сегодня 19:54

Часовой пояс: GMT



Вы не можете начинать темы
Вы не можете отвечать на сообщения
Вы не можете редактировать свои сообщения
Вы не можете удалять свои сообщения
Вы не можете голосовать в опросах
Вы не можете прикреплять файлы к сообщениям
Вы не можете скачивать файлы