Важное объявление!
У Нас Все раздачи мультитрекерные, при нуле пиров в релизах, можете смело вставать на закачку!
 
Автор Сообщение

HUNTER

Стаж:
4 года 4 месяца
Сообщений:
56749

Репутация: 101

[+] [-]
Вне форума [Профиль] [ЛС]

Сила воли / Гонка / Race
Страна: Канада, Германия
Студия: Forecast Pictures
Жанр: драма, биография, спорт
Год выпуска: 2016
Продолжительность: 02:14:27
Перевод: Профессиональный (дублированный) iTunes
Cубтитры: Rus, Eng
Оригинальная аудиодорожка: английский
Режиссер: Стивен Хопкинс / Stephen Hopkins
В ролях: Стэфан Джеймс, Джейсон Судейкис, Эли Гори, Шанис Бэнтон, Кэрис ван Хаутен, Джереми Айронс, Уильям Хёрт, Давид Кросс, Джонатан Хиггинс, Тони Кёрран
Описание: Правдивая история легендарного чернокожего атлета Джесси Оуэнса, чье невероятное упорство привело его на Олимпийские игры 1936 года в нацистском Берлине. Встретившиеся на его пути преграды и искушения - ничто в сравнении с грандиозным забегом, за которым следил весь мир. Затаив дыхание, одни надеялись на победу Джесси как на символ справедливости и достоинства, а другие жаждали его поражения во имя триумфа идеологии. Несколько секунд - и Джесси ворвался в историю, бросив дерзкий вызов самому Гитлеру.
[img]https://rating.kinopoisk.ru/823705.gif[/img]
Тип релиза: BDRip 720p
Контейнер: MKV
Видео: MPEG-4 AVC, 5264 Кбит/с, 1280x546, 23,976 fps
Аудио: Rus, AC3, 384 kb/s (6 ch), 48 kHz
Аудио 2: Eng, AC3, 640 kb/s (6 ch), 48 kHz
Формат субтитров: softsub (SRT)

MediaInfo

x264 [info]: frame I:1894 Avg QP:13.00 size:120732
x264 [info]: frame P:40742 Avg QP:14.51 size: 51252
x264 [info]: frame B:150785 Avg QP:15.30 size: 20679
Format : Matroska
Format version : Version 4 / Version 2
File size : 6.03 GiB
Duration : 2h 14mn
Overall bit rate : 6 416 Kbps
Movie name : Сила воли. (Tonik)
Encoded date : UTC 2016-08-20 03:45:45
Writing application : mkvmerge v7.1.0 ('Good Love') 64bit built on Jul 27 2014 13:06:55
Writing library : libebml v1.3.0 + libmatroska v1.4.1
_STATISTICS_WRITING_APP : mkvmerge v7.1.0 ('Good Love') 64bit built on Jul 27 2014 13:06:55
_STATISTICS_WRITING_DATE_UTC : 2016-08-20 03:45:45
_STATISTICS_TAGS : BPS DURATION NUMBER_OF_FRAMES NUMBER_OF_BYTES
DURATION : 02:03:26.782000000
NUMBER_OF_FRAMES : 1641
NUMBER_OF_BYTES : 91888
Video
ID : 1
Format : AVC
Format/Info : Advanced Video Codec
Format profile : High@L4.1
Format settings, CABAC : Yes
Format settings, ReFrames : 11 frames
Codec ID : V_MPEG4/ISO/AVC
Bit rate : 5 264 Kbps
Width : 1 280 pixels
Height : 546 pixels
Display aspect ratio : 2.35:1
Frame rate mode : Variable
Original frame rate : 23.976 fps
Color space : YUV
Chroma subsampling : 4:2:0
Bit depth : 8 bits
Scan type : Progressive
Writing library : x264 core 148 r2705+54 9f484c1 t_mod_Custom [8-bit@all X86_64]
Encoding settings : cabac=1 / ref=11 / deblock=1:-3:-3 / analyse=0x3:0x133 / me=umh / subme=10 / psy=1 / fade_compensate=0.00 / psy_rd=1.00:0.00 / mixed_ref=1 / me_range=32 / chroma_me=1 / trellis=2 / 8x8dct=1 / cqm=0 / deadzone=21,11 / fast_pskip=0 / chroma_qp_offset=-2 / threads=8 / lookahead_threads=1 / sliced_threads=0 / nr=0 / decimate=0 / interlaced=0 / bluray_compat=0 / constrained_intra=0 / fgo=0 / bframes=8 / b_pyramid=2 / b_adapt=2 / b_bias=0 / direct=3 / weightb=1 / open_gop=0 / weightp=2 / keyint=250 / keyint_min=23 / scenecut=40 / intra_refresh=0 / rc_lookahead=150 / rc=crf / mbtree=0 / crf=15.4000 / qcomp=0.60 / qpmin=0:0:0 / qpmax=69:69:69 / qpstep=4 / vbv_maxrate=50000 / vbv_bufsize=62500 / crf_max=0.0 / nal_hrd=none / filler=0 / ip_ratio=1.30 / pb_ratio=1.20 / aq=3:0.80 / aq-sensitivity=10.00 / aq-factor=1.00:1.00:1.00 / aq2=0 / aq3=0
Language : English
Default : Yes
Forced : No
Matrix coefficients : BT.709
_STATISTICS_WRITING_APP : mkvmerge v7.1.0 ('Good Love') 64bit built on Jul 27 2014 13:06:55
_STATISTICS_WRITING_DATE_UTC : 2016-08-20 03:45:45
_STATISTICS_TAGS : BPS DURATION NUMBER_OF_FRAMES NUMBER_OF_BYTES
DURATION : 02:14:27.268000000
NUMBER_OF_FRAMES : 193421
NUMBER_OF_BYTES : 5434795172
Audio #1
ID : 2
Format : AC-3
Format/Info : Audio Coding 3
Mode extension : CM (complete main)
Format settings, Endianness : Big
Codec ID : A_AC3
Duration : 2h 14mn
Bit rate mode : Constant
Bit rate : 384 Kbps
Channel(s) : 6 channels
Channel positions : Front: L C R, Side: L R, LFE
Sampling rate : 48.0 KHz
Bit depth : 16 bits
Compression mode : Lossy
Stream size : 369 MiB (6%)
Title : iTunes
Language : Russian
Default : Yes
Forced : No
Audio #2
ID : 3
Format : AC-3
Format/Info : Audio Coding 3
Mode extension : CM (complete main)
Format settings, Endianness : Big
Codec ID : A_AC3
Duration : 2h 14mn
Bit rate mode : Constant
Bit rate : 640 Kbps
Channel(s) : 6 channels
Channel positions : Front: L C R, Side: L R, LFE
Sampling rate : 48.0 KHz
Bit depth : 16 bits
Compression mode : Lossy
Stream size : 615 MiB (10%)
Language : English
Default : No
Forced : No
Text #1
ID : 4
Format : UTF-8
Codec ID : S_TEXT/UTF8
Codec ID/Info : UTF-8 Plain Text
Title : Forced
Language : Russian
Default : Yes
Forced : No
Text #2
ID : 5
Format : UTF-8
Codec ID : S_TEXT/UTF8
Codec ID/Info : UTF-8 Plain Text
Language : Russian
Default : No
Forced : No
Text #3
ID : 6
Format : UTF-8
Codec ID : S_TEXT/UTF8
Codec ID/Info : UTF-8 Plain Text
Title : Forced
Language : English
Default : No
Forced : No
Text #4
ID : 7
Format : UTF-8
Codec ID : S_TEXT/UTF8
Codec ID/Info : UTF-8 Plain Text
Language : English
Default : No
Forced : No
Text #5
ID : 8
Format : UTF-8
Codec ID : S_TEXT/UTF8
Codec ID/Info : UTF-8 Plain Text
Title : SDH
Language : English
Default : No
Forced : No
Menu
00:00:00.000 : en:Chapter 1
00:05:30.747 : en:Chapter 2
00:13:49.454 : en:Chapter 3
00:21:24.658 : en:Chapter 4
00:31:46.154 : en:Chapter 5
00:38:00.570 : en:Chapter 6
00:44:47.560 : en:Chapter 7
00:51:13.779 : en:Chapter 8
00:56:31.888 : en:Chapter 9
01:03:45.739 : en:Chapter 10
01:09:46.265 : en:Chapter 11
01:15:48.544 : en:Chapter 12
01:19:37.398 : en:Chapter 13
01:27:43.717 : en:Chapter 14
01:33:55.463 : en:Chapter 15
01:39:49.859 : en:Chapter 16
01:47:22.311 : en:Chapter 17
01:52:07.137 : en:Chapter 18
01:57:30.835 : en:Chapter 19
02:05:34.110 : en:Chapter 20

Скриншоты


_________________
Показать сообщения:    

Текущее время: Сегодня 04:44

Часовой пояс: GMT



Вы не можете начинать темы
Вы не можете отвечать на сообщения
Вы не можете редактировать свои сообщения
Вы не можете удалять свои сообщения
Вы не можете голосовать в опросах
Вы не можете прикреплять файлы к сообщениям
Вы не можете скачивать файлы