Важное объявление!
У Нас Все раздачи мультитрекерные, при нуле пиров в релизах, можете смело вставать на закачку!
 
Автор Сообщение

HUNTER

Стаж:
4 года 4 месяца
Сообщений:
56809

Репутация: 101

[+] [-]
Вне форума [Профиль] [ЛС]

Сигнал / The Signal
Страна: США
Жанр: фантастика, триллер
Год выпуска: 2014
Продолжительность: 01:37:11
Перевод: Авторский (одноголосый закадровый) Ю.Немахов
Cубтитры: English, English (SDH)
Оригинальная аудиодорожка: английский
Режиссер: Уильям Юбэнк / William Eubank
В ролях: Лоуренс Фишборн, Патрик Дэвидсон, Брентон Туэйтес, Оливия Кук, Бо Напп, Джеффри Гроувер, Рой Кенни, Тимоти Холмс, Рикардо Кампос, Дрю Сайкес
Описание: Трое студентов-хакеров неожиданно начинают получать таинственные сообщения от незнакомца под ником NOMAD (Кочевник). Но они даже не подозревают, что имеют дело не с человеком, а с сигналами внеземного разума.
После серии необъяснимых происшествий друзья бегут из опасной ловушки, но тут же становятся объектами охоты «людей в чёрном», которые считают, что после контакта хакеры могут представлять угрозу для всего человечества.

Тип релиза: BDRip 720p
Контейнер: MKV
Видео: 1280x534 at 23.976 fps, x264, CRF 16, L4.1 ~5498 kbps avg
Аудио: Russian: 48 kHz/24-bit, DTS ,3/2 (L,C,R,l,r) + LFE ch, ~1509.00 kbps avg
Аудио 2: English: 48 kHz/24-bit, DTS, 3/2 (L,C,R,l,r) + LFE ch,~1509.00 kbps avg
Формат субтитров: softsub (SRT)
Цитата:
Цитата:

Сохранены оригинальные чаптеры как на Blu-ray.
Дорожка №1 получена наложением чистого голоса на центр декодированного DTS-HD MA.
Перевод Юрия Немахова выполнен спонсорами ресурса e180 и участниками сервиса "Озвучивание": tambov68, Leopard2, shtift, PufPaf.
Всем ОГРОМНОЕ СПАСИБО!

MediaInfo

Format : Matroska
Format version : Version 2
File size : 5.87 GiB
Duration : 1h 37mn
Overall bit rate : 8 652 Kbps
Movie name : The.Signal.2014.720p.BluRay.Rus.Eng.HDClub
Encoded date : UTC 2014-10-03 07:24:34
Writing application : mkvmerge v5.2.1 ('A Far Off Place') built on Jan 2 2012 23:21:10
Writing library : libebml v1.2.3 + libmatroska v1.3.0
Video
ID : 1
Format : AVC
Format/Info : Advanced Video Codec
Format profile : High@L4.1
Format settings, CABAC : Yes
Format settings, ReFrames : 12 frames
Codec ID : V_MPEG4/ISO/AVC
Bit rate : 5 460 Kbps
Width : 1 280 pixels
Height : 534 pixels
Display aspect ratio : 2.40:1
Frame rate mode : Variable
Original frame rate : 23.976 fps
Color space : YUV
Chroma subsampling : 4:2:0
Bit depth : 8 bits
Scan type : Progressive
Title : The.Signal.2014.720p.BluRay.DTS.x264-DON
Writing library : x264 core 140 r2377 1ca7bb9
Encoding settings : cabac=1 / ref=12 / deblock=1:-3:-3 / analyse=0x3:0x133 / me=umh / subme=10 / psy=1 / psy_rd=1.07:0.00 / mixed_ref=1 / me_range=48 / chroma_me=1 / trellis=2 / 8x8dct=1 / cqm=0 / deadzone=21,11 / fast_pskip=0 / chroma_qp_offset=-2 / threads=12 / lookahead_threads=2 / sliced_threads=0 / nr=0 / decimate=0 / interlaced=0 / bluray_compat=0 / constrained_intra=0 / bframes=8 / b_pyramid=2 / b_adapt=2 / b_bias=0 / direct=3 / weightb=1 / open_gop=0 / weightp=2 / keyint=240 / keyint_min=23 / scenecut=40 / intra_refresh=0 / rc_lookahead=60 / rc=crf / mbtree=0 / crf=16.0 / qcomp=0.65 / qpmin=0 / qpmax=69 / qpstep=4 / vbv_maxrate=62500 / vbv_bufsize=78125 / crf_max=0.0 / nal_hrd=none / filler=0 / ip_ratio=1.30 / pb_ratio=1.15 / aq=1:0.72
Language : English
Default : Yes
Forced : No
Audio #1
ID : 2
Format : DTS
Format/Info : Digital Theater Systems
Codec ID : A_DTS
Duration : 1h 37mn
Bit rate mode : Constant
Bit rate : 1 510 Kbps
Channel(s) : 6 channels
Channel positions : Front: L C R, Side: L R, LFE
Sampling rate : 48.0 KHz
Bit depth : 24 bits
Compression mode : Lossy
Stream size : 1.02 GiB (17%)
Title : Nemahov
Language : Russian
Default : Yes
Forced : No
Audio #2
ID : 3
Format : DTS
Format/Info : Digital Theater Systems
Codec ID : A_DTS
Duration : 1h 37mn
Bit rate mode : Constant
Bit rate : 1 510 Kbps
Channel(s) : 6 channels
Channel positions : Front: L C R, Side: L R, LFE
Sampling rate : 48.0 KHz
Bit depth : 24 bits
Compression mode : Lossy
Stream size : 1.02 GiB (17%)
Title : Original
Language : English
Default : No
Forced : No
Text #1
ID : 4
Format : UTF-8
Codec ID : S_TEXT/UTF8
Codec ID/Info : UTF-8 Plain Text
Language : English
Default : Yes
Forced : No
Text #2
ID : 5
Format : PGS
Muxing mode : zlib
Codec ID : S_HDMV/PGS
Codec ID/Info : The same subtitle format used on BDs/HD-DVDs
Title : SDH
Language : English
Default : No
Forced : No
Menu
00:00:00.000 : en:00:00:00.000
00:04:26.099 : en:00:04:26.099
00:08:29.592 : en:00:08:29.592
00:12:52.605 : en:00:12:52.605
00:17:20.957 : en:00:17:20.957
00:23:18.355 : en:00:23:18.355
00:27:36.530 : en:00:27:36.530
00:33:47.776 : en:00:33:47.776
00:38:41.819 : en:00:38:41.819
00:42:48.816 : en:00:42:48.816
00:46:52.852 : en:00:46:52.852
00:51:03.477 : en:00:51:03.477
00:56:00.899 : en:00:56:00.899
01:01:50.206 : en:01:01:50.206
01:05:25.380 : en:01:05:25.380
01:12:40.231 : en:01:12:40.231
01:16:38.344 : en:01:16:38.344
01:23:49.191 : en:01:23:49.191
01:30:09.904 : en:01:30:09.904
01:33:01.159 : en:01:33:01.159

Скриншоты


_________________
Показать сообщения:    

Текущее время: Сегодня 16:33

Часовой пояс: GMT



Вы не можете начинать темы
Вы не можете отвечать на сообщения
Вы не можете редактировать свои сообщения
Вы не можете удалять свои сообщения
Вы не можете голосовать в опросах
Вы не можете прикреплять файлы к сообщениям
Вы не можете скачивать файлы