Важное объявление!
У Нас Все раздачи мультитрекерные, при нуле пиров в релизах, можете смело вставать на закачку!
 
Автор Сообщение

HUNTER

Стаж:
4 года 4 месяца
Сообщений:
56809

Репутация: 101

[+] [-]
Вне форума [Профиль] [ЛС]

Сибирь. Монамур
Страна: Россия
Студия: Tundra Film
Жанр: драма
Год выпуска: 2011
Продолжительность: 01:44:39
Перевод: Не требуется
Cубтитры: нет
Оригинальная аудиодорожка: русский
Режиссер: Вячеслав Росс
В ролях: Петр Зайченко, Михаил Процько, Сергей Новиков, Лидия Байрашевская, Николай Козак, Максим Емельянов, Соня Росс, Сергей Пускепалис, Юрий Гумиров, Марианна Шульц
Описание: Сибирь. Поздняя осень. В тайге, в заброшенной деревне живет старик — старовер Иван и его 7-летний внук Лешка. Они ждут отца мальчика, который ушел 2 года назад и не вернулся. Стая бродячих собак пожирает все живое в окрестностях. Мальчик дружит с одной из этих собак, за это старик его часто ругает. Иногда дальний родственник дядя Юра привозит им еду.
Доп. информация: Сохранены оригинальные чаптеры как на Blu-ray
Сэмпл
Тип релиза: BDRip 720p [Рип с Blu-ray]
Контейнер: MKV
Видео: H.264/AVC; 1280x536 (2.40:1); 5995 Kbps; 24,000 fps;
Аудио: Russian; AC3; 640 Kbps; 6 ch; 48kHz
Релиз от
IRONCLUB

MediaInfo

Общее
Уникальный идентификатор : 186028679402064626863697636233162876951 (0x8BF3D206E2069EC19CB8800531796817)
Полное имя : B:\Sibir.Monamur.2011.O.BDRip.720p.IRONCLUB.mkv
Формат : Matroska
Версия формата : Version 2
Размер файла : 4,85 Гбайт
Продолжительность : 1 ч. 44 м.
Общий поток : 6634 Кбит/сек
Название фильма : -=IRONCLUB.TV=-
Дата кодирования : UTC 2011-12-31 08:03:49
Программа кодирования : mkvmerge v5.2.0 ('I can't explain') built on Dec 18 2011 18:12:03
Библиотека кодирования : libebml v1.2.3 + libmatroska v1.3.0
Видео
Идентификатор : 1
Формат : AVC
Формат/Информация : Advanced Video Codec
Профиль формата : High@L4.1
Параметр CABAC формата : Да
Параметр ReFrames формата : 12 кадров
Идентификатор кодека : V_MPEG4/ISO/AVC
Продолжительность : 1 ч. 44 м.
Битрейт : 5995 Кбит/сек
Ширина : 1280 пикселей
Высота : 536 пикселей
Соотношение сторон : 2,40:1
Частота кадров : 24,000 кадра/сек
Цветовое пространство : YUV
Субдискретизация насыщенности : 4:2:0
Битовая глубина : 8 бит
Тип развёртки : Прогрессивная
Бит/(Пиксели*Кадры) : 0.364
Размер потока : 4,29 Гбайт (88%)
Библиотека кодирования : x264 core 116 r2074 2641b9e
Настройки программы : cabac=1 / ref=12 / deblock=1:-3:-3 / analyse=0x3:0x133 / me=umh / subme=11 / psy=1 / psy_rd=0.95:0.05 / mixed_ref=1 / me_range=64 / chroma_me=1 / trellis=2 / 8x8dct=1 / cqm=0 / deadzone=21,11 / fast_pskip=0 / chroma_qp_offset=-3 / threads=12 / sliced_threads=0 / nr=0 / decimate=1 / interlaced=0 / bluray_compat=0 / constrained_intra=0 / bframes=6 / b_pyramid=2 / b_adapt=2 / b_bias=0 / direct=3 / weightb=1 / open_gop=0 / weightp=2 / keyint=250 / keyint_min=24 / scenecut=40 / intra_refresh=0 / rc_lookahead=40 / rc=2pass / mbtree=1 / bitrate=5995 / ratetol=1.0 / qcomp=0.60 / qpmin=0 / qpmax=69 / qpstep=4 / cplxblur=20.0 / qblur=0.5 / vbv_maxrate=50000 / vbv_bufsize=62500 / nal_hrd=none / ip_ratio=1.40 / aq=1:1.00
Язык : English
Default : Да
Forced : Нет
Аудио
Идентификатор : 2
Формат : AC-3
Формат/Информация : Audio Coding 3
Расширение режима : CM (complete main)
Идентификатор кодека : A_AC3
Продолжительность : 1 ч. 44 м.
Вид битрейта : Постоянный
Битрейт : 640 Кбит/сек
Каналы : 6 каналов
Расположение каналов : Front: L C R, Side: L R, LFE
Частота : 48,0 КГц
Битовая глубина : 16 бит
Метод сжатия : С потерями
Размер потока : 479 Мбайт (10%)
Язык : Russian
Default : Да
Forced : Нет
Меню
00:00:00.000 : en:Chapter 01
00:09:54.488 : en:Chapter 02
00:20:43.340 : en:Chapter 03
00:29:21.072 : en:Chapter 04
00:38:34.768 : en:Chapter 05
00:49:13.879 : en:Chapter 06
00:59:29.763 : en:Chapter 07
01:09:12.680 : en:Chapter 08
01:19:12.622 : en:Chapter 09
01:30:37.437 : en:Chapter 10
01:39:51.342 : en:Chapter 11
01:44:33.060 : en:Chapter 12

Скриншоты


_________________
Показать сообщения:    

Текущее время: Сегодня 20:01

Часовой пояс: GMT



Вы не можете начинать темы
Вы не можете отвечать на сообщения
Вы не можете редактировать свои сообщения
Вы не можете удалять свои сообщения
Вы не можете голосовать в опросах
Вы не можете прикреплять файлы к сообщениям
Вы не можете скачивать файлы