Важное объявление!
У Нас Все раздачи мультитрекерные, при нуле пиров в релизах, можете смело вставать на закачку!
 
Автор Сообщение

HUNTER

Стаж:
4 года 4 месяца
Сообщений:
56798

Репутация: 101

[+] [-]
Вне форума [Профиль] [ЛС]

Сибирь. Монамур

-
-Страна: Россия
Студия: Tundra Film
Жанр: драма
Год выпуска: 2011
Продолжительность: 01:44:39--Перевод: Оригинал
Cубтитры: нет--Режиссер: Вячеслав Росс
В ролях: Петр Зайченко, Михаил Процько, Сергей Новиков, Лидия Байрашевская, Николай Козак, Максим Емельянов, Соня Росс, Сергей Пускепалис, Юрий Гумиров, Марианна Шульц--Описание: Сибирь. Поздняя осень. В тайге, в заброшенной деревне живет старик — старовер Иван и его 7-летний внук Лешка. Они ждут отца мальчика, который ушел 2 года назад и не вернулся. Стая бродячих собак пожирает все живое в окрестностях. Мальчик дружит с одной из этих собак, за это старик его часто ругает. Иногда дальний родственник дядя Юра привозит им еду.--Релиз от IRONCLUB | imdb | kinopoisk | Сэмпл--Тип релиза: BDRip 1080p [IRONCLUB]
Контейнер: MKV
Видео: 13 mb/s, 1920x800, 24 fps, V_MPEG4/ISO/AVC
Аудио: AC3, 640 kb/s, 5.1, 48 kHz, 16 bits

MediaInfo

General
Complete name : Sibir.Monamur.2011.O.BDRip.1080p.IRONCLUB.mkv
Format : Matroska
Format version : Version 2
File size : 9.98 GiB
Duration : 1h 44mn
Overall bit rate : 13.7 Mbps
Movie name : Сибирь. Монамур (2011) - Release for IronClub.TV
Encoded date : UTC 2011-12-31 15:30:11
Writing application : mkvmerge v5.2.0 ('I can't explain') built on Dec 18 2011 18:12:03
Writing library : libebml v1.2.3 + libmatroska v1.3.0
Video
ID : 1
Format : AVC
Format/Info : Advanced Video Codec
Format profile : High@L4.1
Format settings, CABAC : Yes
Format settings, ReFrames : 5 frames
Codec ID : V_MPEG4/ISO/AVC
Duration : 1h 44mn
Bit rate : 13.0 Mbps
Width : 1 920 pixels
Height : 800 pixels
Display aspect ratio : 2.40:1
Frame rate : 24.000 fps
Color space : YUV
Chroma subsampling : 4:2:0
Bit depth : 8 bits
Scan type : Progressive
Bits/(Pixel*Frame) : 0.353
Stream size : 9.31 GiB (93%)
Title : Сибирь. Монамур (2011) - Release for IronClub.TV
Writing library : x264 core 116 r2074 2641b9e
Encoding settings : cabac=1 / ref=5 / deblock=1:-3:-3 / analyse=0x3:0x113 / me=umh / subme=10 / psy=1 / psy_rd=1.05:0.15 / mixed_ref=1 / me_range=32 / chroma_me=1 / trellis=2 / 8x8dct=1 / cqm=0 / deadzone=21,11 / fast_pskip=0 / chroma_qp_offset=-3 / threads=12 / sliced_threads=0 / nr=0 / decimate=1 / interlaced=0 / bluray_compat=0 / constrained_intra=0 / bframes=8 / b_pyramid=2 / b_adapt=1 / b_bias=0 / direct=3 / weightb=1 / open_gop=0 / weightp=2 / keyint=250 / keyint_min=24 / scenecut=40 / intra_refresh=0 / rc_lookahead=40 / rc=2pass / mbtree=1 / bitrate=13015 / ratetol=1.0 / qcomp=0.60 / qpmin=10 / qpmax=51 / qpstep=4 / cplxblur=20.0 / qblur=0.5 / vbv_maxrate=62500 / vbv_bufsize=50000 / nal_hrd=none / ip_ratio=1.40 / aq=1:1.00
Language : Russian
Default : Yes
Forced : Yes
Audio
ID : 2
Format : AC-3
Format/Info : Audio Coding 3
Mode extension : CM (complete main)
Codec ID : A_AC3
Duration : 1h 44mn
Bit rate mode : Constant
Bit rate : 640 Kbps
Channel(s) : 6 channels
Channel positions : Front: L C R, Side: L R, LFE
Sampling rate : 48.0 KHz
Bit depth : 16 bits
Compression mode : Lossy
Stream size : 479 MiB (5%)
Title : DD 5.1 @ 640 kbps
Language : Russian
Default : Yes
Forced : Yes
Menu
00:00:00.000 : :00:00:00.000
00:09:54.488 : :00:09:54.488
00:20:43.340 : :00:20:43.340
00:29:21.072 : :00:29:21.072
00:38:34.768 : :00:38:34.768
00:49:13.879 : :00:49:13.879
00:59:29.763 : :00:59:29.763
01:09:12.680 : :01:09:12.680
01:19:12.622 : :01:19:12.622
01:30:37.437 : :01:30:37.437
01:39:51.342 : :01:39:51.342
01:44:33.060 : :01:44:33.060

x264 log

---[NoImage] x264 [info]: profile High, level 4.1
---[NoImage] x264 [info]: frame I:1059 Avg QP:17.45 size:180754
---[NoImage] x264 [info]: frame P:79529 Avg QP:18.13 size: 94371
---[NoImage] x264 [info]: frame B:70118 Avg QP:20.97 size: 35894
---[NoImage] x264 [info]: consecutive B-frames: 22.4% 41.5% 19.4% 11.8% 3.5% 0.9% 0.2% 0.0% 0.3%
---[NoImage] x264 [info]: mb I I16..4: 12.7% 69.3% 18.1%
---[NoImage] x264 [info]: mb P I16..4: 3.7% 17.8% 1.8% P16..4: 35.9% 24.6% 13.2% 0.0% 0.0% skip: 2.9%
---[NoImage] x264 [info]: mb B I16..4: 0.8% 2.2% 0.2% B16..8: 38.3% 11.2% 2.8% direct:15.2% skip:29.3% L0:40.6% L1:34.9% BI:24.5%
---[NoImage] x264 [info]: 8x8 transform intra:75.2% inter:48.5%
---[NoImage] x264 [info]: direct mvs spatial:93.6% temporal:6.4%
---[NoImage] x264 [info]: coded y,uvDC,uvAC intra: 82.6% 60.2% 22.3% inter: 49.5% 36.3% 4.3%
---[NoImage] x264 [info]: i16 v,h,dc,p: 42% 17% 24% 17%
---[NoImage] x264 [info]: i8 v,h,dc,ddl,ddr,vr,hd,vl,hu: 9% 10% 15% 8% 11% 10% 12% 10% 14%
---[NoImage] x264 [info]: i4 v,h,dc,ddl,ddr,vr,hd,vl,hu: 9% 9% 8% 9% 14% 12% 14% 11% 15%
---[NoImage] x264 [info]: i8c dc,h,v,p: 50% 22% 20% 8%
---[NoImage] x264 [info]: Weighted P-Frames: Y:1.7% UV:0.5%
---[NoImage] x264 [info]: ref P L0: 45.4% 10.4% 21.5% 10.2% 8.5% 3.9% 0.1%
---[NoImage] x264 [info]: ref B L0: 67.5% 22.3% 8.6% 1.6%
---[NoImage] x264 [info]: ref B L1: 93.1% 6.9%
---[NoImage] x264 [info]: kb/s:13011.99
---[NoImage] encoded 150706 frames, 3.37 fps, 13011.99 kb/s

Скриншоты




_________________
Показать сообщения:    

Текущее время: Сегодня 05:51

Часовой пояс: GMT



Вы не можете начинать темы
Вы не можете отвечать на сообщения
Вы не можете редактировать свои сообщения
Вы не можете удалять свои сообщения
Вы не можете голосовать в опросах
Вы не можете прикреплять файлы к сообщениям
Вы не можете скачивать файлы