Важное объявление!
У Нас Все раздачи мультитрекерные, при нуле пиров в релизах, можете смело вставать на закачку!
 
Автор Сообщение

HUNTER

Стаж:
4 года 4 месяца
Сообщений:
56749

Репутация: 101

[+] [-]
Вне форума [Профиль] [ЛС]

Серебряная воля Аргеволлена / Shirogane no Ishi: Argevollen
Страна: Япония
Год выпуска: 2014 г.
Тип: TV
Жанр: Приключения, фантастика, меха
Продолжительность: 24 эп. по 25 мин
русские субтитры: Timecraft
Переводчик/Перевод песен/Оформление: Nachtwandler
Редактор: Buka63
Режиссер: Оцуки Ацуси
Студия:
Описание: Сюжет разворачивается в мире, где уже очень давно идёт война между государствами Аландас и Ингермия. Юноша Токимуне, приписанный к «восьмому независимому подразделению», спасает девушку Джейме от нападения вражеских войск. Чтобы выжить, он забирается в новейшую боевую машину под названием Аргеволлен и вступает в бой.
Равка: Zero-Raws
Хардсаб: Отсутствует
Качество: HDTVRip
Формат видео: mp4
Видео: AVC, 8 bits, 1280x720; 23.976 fps; 2498 Kbps, (16:9)
Аудио:
1. JP - AAC, 48.0 KHz, 192 kbps, 2 ch
Список эпизодов
01. Встреча
СкриншотыMediaInfo
Общее
Полное имя : D:\[Zero-Raws]\[Zero-Raws] Argevollen\[Zero-Raws] Argevollen - 01 (MBS 1280x720 x264 AAC).mp4
Формат : MPEG-4
Профиль формата : Base Media
Идентификатор кодека : isom
Размер файла : 458 Мбайт
Продолжительность : 23 м.
Режим общего битрейта : Переменный
Общий поток : 2690 Кбит/сек
Дата кодирования : UTC 2014-07-04 00:11:51
Дата пометки : UTC 2014-07-04 00:11:51
Видео
Идентификатор : 1
Формат : AVC
Формат/Информация : Advanced Video Codec
Профиль формата : High@L3.1
Параметр CABAC формата : Да
Параметр ReFrames формата : 4 кадра
Идентификатор кодека : avc1
Идентификатор кодека/Информация : Advanced Video Coding
Продолжительность : 23 м.
Битрейт : 2498 Кбит/сек
Максимальный битрейт : 31,3 Мбит/сек
Ширина : 1280 пикселей
Высота : 720 пикселей
Соотношение сторон : 16:9
Режим частоты кадров : Постоянный
Частота кадров : 23,976 кадра/сек
Цветовое пространство : YUV
Субдискретизация насыщенности : 4:2:0
Битовая глубина : 8 бит
Тип развёртки : Прогрессивная
Бит/(Пиксели*Кадры) : 0.113
Размер потока : 426 Мбайт (93%)
Библиотека кодирования : x264 core 133 r2334 a3ac64b
Настройки программы : cabac=1 / ref=3 / deblock=1:0:0 / analyse=0x3:0x113 / me=hex / subme=7 / psy=1 / psy_rd=1.00:0.00 / mixed_ref=1 / me_range=16 / chroma_me=1 / trellis=1 / 8x8dct=1 / cqm=0 / deadzone=21,11 / fast_pskip=1 / chroma_qp_offset=-2 / threads=12 / lookahead_threads=2 / sliced_threads=0 / nr=0 / decimate=1 / interlaced=0 / bluray_compat=0 / constrained_intra=0 / bframes=3 / b_pyramid=2 / b_adapt=1 / b_bias=0 / direct=1 / weightb=1 / open_gop=0 / weightp=2 / keyint=250 / keyint_min=23 / scenecut=40 / intra_refresh=0 / rc_lookahead=40 / rc=crf / mbtree=1 / crf=19.5 / qcomp=0.60 / qpmin=0 / qpmax=69 / qpstep=4 / ip_ratio=1.40 / aq=1:1.00
Дата кодирования : UTC 2014-07-03 23:50:35
Дата пометки : UTC 2014-07-04 00:11:54
Аудио
Идентификатор : 2
Формат : AAC
Формат/Информация : Advanced Audio Codec
Профиль формата : LC
Идентификатор кодека : 40
Продолжительность : 23 м.
Вид битрейта : Переменный
Битрейт : 192 Кбит/сек
Максимальный битрейт : 197 Кбит/сек
Каналы : 2 канала
Расположение каналов : Front: L R
Частота : 48,0 КГц
Метод сжатия : С потерями
Размер потока : 32,1 Мбайт (7%)
Заголовок : aac#trackID=1:lang=Japanese@GPAC0.5.1-DEV-rev4708
Язык : Japanese
Дата кодирования : UTC 2014-07-04 00:11:53
Дата пометки : UTC 2014-07-04 00:11:54

_________________
Показать сообщения:    

Текущее время: Сегодня 04:33

Часовой пояс: GMT



Вы не можете начинать темы
Вы не можете отвечать на сообщения
Вы не можете редактировать свои сообщения
Вы не можете удалять свои сообщения
Вы не можете голосовать в опросах
Вы не можете прикреплять файлы к сообщениям
Вы не можете скачивать файлы