Важное объявление!
У Нас Все раздачи мультитрекерные, при нуле пиров в релизах, можете смело вставать на закачку!
 
Автор Сообщение

HUNTER

Стаж:
4 года 4 месяца
Сообщений:
56734

Репутация: 101

[+] [-]
Вне форума [Профиль] [ЛС]

Сердцеедки / Heartbreakers
Страна: США
Студия: Davis Entertainment, Metro-Goldwyn-Mayer (MGM)
Жанр: мелодрама, комедия, криминал
Год выпуска: 2001
Продолжительность: 02:03:29
Перевод 1: Профессиональный (дублированный)
Перевод 2: Профессиональный (многоголосый закадровый)
Перевод 3: Профессиональный (многоголосый закадровый) ОРТ
Перевод 4: Профессиональный (многоголосый закадровый) СТС
Перевод 5: Авторский (одноголосый закадровый) Ю. Сербин
Перевод 6: Авторский (одноголосый закадровый) Ю. Живов
Перевод 7: Одноголосый закадровый
Cубтитры: Russian, English
Оригинальная аудиодорожка: английский
Режиссер: Дэвид Миркин / David Mirkin
В ролях: Сигурни Уивер, Дженнифер Лав Хьюитт, Джин Хэкмен, Рэй Лиотта, Джейсон Ли, Энн Бэнкрофт, Джеффри Джонс, Нора Данн, Хулио Оскар Мечосо, Рикки Джей
Описание: Очаровательная интриганка Макс Коннерс и ее прилежная ученица (она же — дочь) Пейдж — отличная команда. Некоторые матери учат своих дочерей музыке, танцам и этикету, а Макс передала Пейдж все, что узнала сама за многие годы об авантюрах, мошенничестве и обольщении. Отсутствие капитала, по их мнению, — лишь временное явление, легко поправимое при помощи мужчин.
Ничего не подозревающие, хорошо обеспеченные жертвы быстро попадаются в коварные сети прекрасных обманщиц. Результат — легкая и беззаботная жизнь на деньги очередного одураченного простофили, лишившегося значительной части своих средств.
И все было бы хорошо, но однажды Пейдж совершила роковую ошибку влюбившись на самом деле. Ведь женское сердце не спрашивая свою хозяйку, всегда ищет настоящую любовь. Много лет назад такую же ошибку совершила и Макс.


Сэмпл: http://sendfile.su/1156691
Тип релиза: WEB-DL 720p
Контейнер: MKV
Видео: 1280x548 at 23.976 fps, MPEG-4 AVC, ~4108 kbps avg
Аудио 1: RUS | 48 kHz, AC3, 3/2 (L,C,R,l,r) + LFE ch, ~448.00 kbps avg | Дубляж
Аудио 2: RUS | 48 kHz, AC3, 3/2 (L,C,R,l,r) + LFE ch, ~348.00 kbps avg | Многоголосый закадровый
Аудио 3: RUS | 48 kHz, AC3, 2/0 (L,R) ch, ~192.00 kbps avg | Многоголосый закадровый, ОРТ
Аудио 4: RUS | 48 kHz, AC3, 2/0 (L,R) ch, ~192.00 kbps avg | Многоголосый закадровый, СТС
Аудио 5: RUS | 48 kHz, AC3, 3/2 (L,C,R,l,r) + LFE ch, ~448.00 kbps avg | Одноголосый закадровый, Ю. Сербин
Аудио 6: RUS | 48 kHz, AC3, 3/2 (L,C,R,l,r) + LFE ch, ~448.00 kbps avg | Одноголосый закадровый, Ю. Живов
Аудио 7: RUS | 48 kHz, AC3, 2/0 (L,R) ch, ~192.00 kbps avg | Одноголосый закадровый
Аудио 8: UKR | 48 kHz, AC3, 3/2 (L,C,R,l,r) + LFE ch, ~448.00 kbps avg | Многоголосый закадровый
Аудио 9: ENG | 48 kHz, AAC, 2/0 (L,R) ch, ~160.00 kbps avg

MediaInfo

General
Unique ID : 206715089043798681271366091169177439511 (0x9B83E0C441430D939BA79ABB0EB68D17)
Complete name : D:\Heartbreakers.2001.720p.WEB-DL.HDClub.mkv
Format : Matroska
Format version : Version 4 / Version 2
File size : 5.92 GiB
Duration : 2h 3mn
Overall bit rate : 6 862 Kbps
Movie name : Heartbreakers.2001.720p.WEB-DL.AAC2.0.H264-FGT
Encoded date : UTC 2015-07-09 11:12:01
Writing application : mkvmerge v7.9.0 ('Birds') 64bit
Writing library : libebml v1.3.1 + libmatroska v1.4.2
DURATION : 02:03:29.536000000
NUMBER_OF_FRAMES : 231548
NUMBER_OF_BYTES : 414934016
_STATISTICS_WRITING_APP : mkvmerge v7.9.0 ('Birds') 64bit
_STATISTICS_WRITING_DATE_UTC : 2015-07-09 11:12:01
_STATISTICS_TAGS : BPS DURATION NUMBER_OF_FRAMES NUMBER_OF_BYTES
Video
ID : 1
Format : AVC
Format/Info : Advanced Video Codec
Format profile : High@L3.1
Format settings, CABAC : No
Format settings, ReFrames : 2 frames
Codec ID : V_MPEG4/ISO/AVC
Duration : 2h 3mn
Width : 1 280 pixels
Height : 548 pixels
Display aspect ratio : 2.35:1
Frame rate mode : Constant
Frame rate : 23.976 fps
Color space : YUV
Chroma subsampling : 4:2:0
Bit depth : 8 bits
Scan type : Progressive
Title : Heartbreakers.2001.720p.WEB-DL.AAC2.0.H264-FGT
Language : English
Default : Yes
Forced : No
Color range : Limited
Color primaries : BT.709
Transfer characteristics : BT.709
Matrix coefficients : BT.709
Audio #1
ID : 2
Format : AC-3
Format/Info : Audio Coding 3
Mode extension : CM (complete main)
Format settings, Endianness : Big
Codec ID : A_AC3
Duration : 2h 3mn
Bit rate mode : Constant
Bit rate : 448 Kbps
Channel(s) : 6 channels
Channel positions : Front: L C R, Side: L R, LFE
Sampling rate : 48.0 KHz
Compression mode : Lossy
Stream size : 396 MiB (7%)
Language : Russian
Default : Yes
Forced : No
Audio #2
ID : 3
Format : AC-3
Format/Info : Audio Coding 3
Mode extension : CM (complete main)
Format settings, Endianness : Big
Codec ID : A_AC3
Duration : 2h 3mn
Bit rate mode : Constant
Bit rate : 384 Kbps
Channel(s) : 6 channels
Channel positions : Front: L C R, Side: L R, LFE
Sampling rate : 48.0 KHz
Compression mode : Lossy
Stream size : 339 MiB (6%)
Language : Russian
Default : No
Forced : No
Audio #3
ID : 4
Format : AC-3
Format/Info : Audio Coding 3
Mode extension : CM (complete main)
Format settings, Endianness : Big
Codec ID : A_AC3
Duration : 2h 3mn
Bit rate mode : Constant
Bit rate : 192 Kbps
Channel(s) : 2 channels
Channel positions : Front: L R
Sampling rate : 48.0 KHz
Compression mode : Lossy
Stream size : 170 MiB (3%)
Language : Russian
Default : No
Forced : No
Audio #4
ID : 5
Format : AC-3
Format/Info : Audio Coding 3
Mode extension : CM (complete main)
Format settings, Endianness : Big
Codec ID : A_AC3
Duration : 2h 3mn
Bit rate mode : Constant
Bit rate : 192 Kbps
Channel(s) : 2 channels
Channel positions : Front: L R
Sampling rate : 48.0 KHz
Compression mode : Lossy
Stream size : 170 MiB (3%)
Language : Russian
Default : No
Forced : No
Audio #5
ID : 6
Format : AC-3
Format/Info : Audio Coding 3
Mode extension : CM (complete main)
Format settings, Endianness : Big
Codec ID : A_AC3
Duration : 2h 3mn
Bit rate mode : Constant
Bit rate : 448 Kbps
Channel(s) : 6 channels
Channel positions : Front: L C R, Side: L R, LFE
Sampling rate : 48.0 KHz
Compression mode : Lossy
Stream size : 396 MiB (7%)
Language : Russian
Default : No
Forced : No
Audio #6
ID : 7
Format : AC-3
Format/Info : Audio Coding 3
Mode extension : CM (complete main)
Format settings, Endianness : Big
Codec ID : A_AC3
Duration : 2h 3mn
Bit rate mode : Constant
Bit rate : 448 Kbps
Channel(s) : 6 channels
Channel positions : Front: L C R, Side: L R, LFE
Sampling rate : 48.0 KHz
Compression mode : Lossy
Stream size : 396 MiB (7%)
Language : Russian
Default : No
Forced : No
Audio #7
ID : 8
Format : AC-3
Format/Info : Audio Coding 3
Mode extension : CM (complete main)
Format settings, Endianness : Big
Codec ID : A_AC3
Duration : 2h 3mn
Bit rate mode : Constant
Bit rate : 192 Kbps
Channel(s) : 2 channels
Channel positions : Front: L R
Sampling rate : 48.0 KHz
Compression mode : Lossy
Stream size : 170 MiB (3%)
Language : Russian
Default : No
Forced : No
Audio #8
ID : 9
Format : AC-3
Format/Info : Audio Coding 3
Mode extension : CM (complete main)
Format settings, Endianness : Big
Codec ID : A_AC3
Duration : 2h 3mn
Bit rate mode : Constant
Bit rate : 448 Kbps
Channel(s) : 6 channels
Channel positions : Front: L C R, Side: L R, LFE
Sampling rate : 48.0 KHz
Compression mode : Lossy
Stream size : 396 MiB (7%)
Language : Ukrainian
Default : No
Forced : No
Audio #9
ID : 10
Format : AAC
Format/Info : Advanced Audio Codec
Format profile : LC
Codec ID : A_AAC
Duration : 2h 3mn
Channel(s) : 2 channels
Channel positions : Front: L R
Sampling rate : 48.0 KHz
Compression mode : Lossy
Title : Heartbreakers.2001.720p.WEB-DL.AAC2.0.H264-FGT
Language : English
Default : No
Forced : No
Text #1
ID : 11
Format : UTF-8
Codec ID : S_TEXT/UTF8
Codec ID/Info : UTF-8 Plain Text
Language : Russian
Default : Yes
Forced : No
Text #2
ID : 12
Format : UTF-8
Codec ID : S_TEXT/UTF8
Codec ID/Info : UTF-8 Plain Text
Language : English
Default : No
Forced : No
Menu
00:00:00.000 : en:Main Title/"I Do"
00:07:50.000 : en:Unzipped & Undone
00:19:11.000 : en:A Taxing Situation
00:22:26.000 : en:The Fall Girl
00:25:58.000 : en:Big Fish & Salty Nuts
00:31:16.000 : en:Tensy Problems/Jack
00:43:17.000 : en:Getting Spiked
00:52:25.000 : en:Star Gazers/U.S.S.R
01:02:04.000 : en:Lights & Meteors
01:06:00.000 : en:Hide & Seek
01:09:45.000 : en:Maid To Please
01:12:39.000 : en:Love & Con-Dropping
01:16:30.000 : en:For Her Own Good
01:18:52.000 : en:Indecent Proposal
01:23:10.000 : en:Drop Dead Gorgeous
01:25:53.000 : en:I'll Do Anything!
01:29:37.000 : en:Strange Bedfellows
01:35:54.000 : en:Hooking Mr. $1.5 Million
01:41:21.000 : en:I Do 2
01:46:09.000 : en:Getting Jacked Around
01:51:40.000 : en:Love Is Pain!
01:54:13.000 : en:A Fresh Start
01:56:18.000 : en:A Respectable Life
01:57:42.000 : en:My Name Is Page
01:58:44.000 : en:One Last Time
01:59:35.000 : en:End Credits

Скриншоты


_________________
Показать сообщения:    

Текущее время: Сегодня 13:51

Часовой пояс: GMT



Вы не можете начинать темы
Вы не можете отвечать на сообщения
Вы не можете редактировать свои сообщения
Вы не можете удалять свои сообщения
Вы не можете голосовать в опросах
Вы не можете прикреплять файлы к сообщениям
Вы не можете скачивать файлы