Важное объявление!
У Нас Все раздачи мультитрекерные, при нуле пиров в релизах, можете смело вставать на закачку!
 
Автор Сообщение

HUNTER

Стаж:
4 года 4 месяца
Сообщений:
56772

Репутация: 101

[+] [-]
Вне форума [Профиль] [ЛС]

Сергей Комарницкий - Откровенно о сокровенном - Особенности, Общение и Отношения Мужчин и Женщин
Страна: Россия
Тематика: межличностные отношения, семья, взаимоотношения, психология
Тип раздаваемого материала: Видеоурок
Продолжительность: 11:13:08
Год выпуска: 2013
Язык: Русский
Перевод: Не требуется
Язык субтитров: нет

Описание

Проводит Сергей Комарницкий,Консультант по семейным отношениям, Психофизиолог.
Темы:
31.03. «Таинство подлинной любви»
- Любовь, как отличить оригинал от подделки
03.04 «Лингвистика Любви»
- Как «невидимое чувство» сделать видимым появлением
07.04 «Мужские тайны»
-Его особенности и потребности
10.04 «Женские тайны»
- Ее особенности и потребности
14.04 «Слово лечит и калечит»
- Непредсказуемый потенциал наших слов
17.04 «Секреты общения в семье»
- Как говорить, чтобы тебя услышали
21.04 «Прощать или не прощать?»
- Прощение — слабость или панацея
24.04 «Если друг оказался вдруг ...»
-Как любить того, кого любить невозможно
28.04 «Закон сохранения любви»
- Три «золотых» совета царя Соломона

Содержание

01. Таинство подлинной любви.mp4 (75:48)
02 Лингвистика Любви.mp4 (65:59)
03 Мужские тайны.mp4 (74: 3)
04 Женские тайны.mp4 (86:22)
05 Слово лечит и калечит.mp4 (63:49)
06 Секреты общения в семье.mp4 (89: 5)
07 Прощать или не прощать.mp4 (71:10)
08 Если друг оказался вдруг... .mp4 (76:10)
09 Закон сохранения любви .mp4 (70:37)
Качество: WEBRip
Формат: MP4
Аудио кодек: AAC
Видео: AVC, 640х360, 25,000 fps, 583 kbp
Аудио: AAC, 44,1 KHz, 2 ch, 128 kbps

MediaInfo

General
Complete name : D:\Комарницкий Сергей\01. Таинство подлинной любви.mp4
Format : MPEG-4
Format profile : Base Media
Codec ID : isom
File size : 316 MiB
Duration : 1h 15mn
Overall bit rate mode : Variable
Overall bit rate : 583 Kbps
Writing application : Lavf54.59.106
Video
ID : 1
Format : AVC
Format/Info : Advanced Video Codec
Format profile : Baseline@L3.0
Format settings, CABAC : No
Format settings, ReFrames : 3 frames
Codec ID : avc1
Codec ID/Info : Advanced Video Coding
Duration : 1h 15mn
Bit rate : 450 Kbps
Width : 640 pixels
Height : 360 pixels
Display aspect ratio : 16:9
Original display aspect ratio : 16:9
Frame rate mode : Constant
Frame rate : 25.000 fps
Color space : YUV
Chroma subsampling : 4:2:0
Bit depth : 8 bits
Scan type : Progressive
Bits/(Pixel*Frame) : 0.078
Stream size : 244 MiB (77%)
Writing library : x264 core 129
Encoding settings : cabac=0 / ref=3 / deblock=1:0:0 / analyse=0x1:0x111 / me=hex / subme=7 / psy=1 / psy_rd=1.00:0.00 / mixed_ref=1 / me_range=16 / chroma_me=1 / trellis=1 / 8x8dct=0 / cqm=0 / deadzone=21,11 / fast_pskip=1 / chroma_qp_offset=-2 / threads=24 / lookahead_threads=4 / sliced_threads=0 / nr=0 / decimate=1 / interlaced=0 / bluray_compat=0 / constrained_intra=0 / bframes=0 / weightp=0 / keyint=250 / keyint_min=25 / scenecut=40 / intra_refresh=0 / rc_lookahead=40 / rc=abr / mbtree=1 / bitrate=450 / ratetol=1.0 / qcomp=0.60 / qpmin=0 / qpmax=69 / qpstep=4 / vbv_maxrate=10000 / vbv_bufsize=10000 / nal_hrd=none / ip_ratio=1.40 / aq=1:1.00
Language : English
Audio
ID : 2
Format : AAC
Format/Info : Advanced Audio Codec
Format profile : LC
Codec ID : 40
Duration : 1h 15mn
Bit rate mode : Variable
Bit rate : 128 Kbps
Maximum bit rate : 10 000 Kbps
Channel count : 2 channels
Channel positions : Front: L R
Sampling rate : 44.1 KHz
Compression mode : Lossy
Stream size : 69.4 MiB (22%)
Language : English

Скриншоты


_________________
Показать сообщения:    

Текущее время: Сегодня 17:21

Часовой пояс: GMT



Вы не можете начинать темы
Вы не можете отвечать на сообщения
Вы не можете редактировать свои сообщения
Вы не можете удалять свои сообщения
Вы не можете голосовать в опросах
Вы не можете прикреплять файлы к сообщениям
Вы не можете скачивать файлы