Важное объявление!
У Нас Все раздачи мультитрекерные, при нуле пиров в релизах, можете смело вставать на закачку!
 
Автор Сообщение

HUNTER

Стаж:
4 года 4 месяца
Сообщений:
56765

Репутация: 101

[+] [-]
Вне форума [Профиль] [ЛС]

Семья Джетсонов : Jetsons: The Movie«The first movie from the family that's truly ahead of its time!»
Год выпуска: 1990
Страна: США
Жанр: мультфильм, мюзикл, фантастика, комедия, семейный
Продолжительность: 01:22:09
Перевод:
Профессиональный (Многоголосый закадровый) - R2
Профессиональный (Многоголосый закадровый) - СТС
Авторский (Одноголосый закадровый) - Дохалов
русские субтитры: нет-Режиссёр: Джозеф Барбера : Joseph Barbera, Уильям Ханна : William Hanna-Роли озвучивали: Джордж О’Хенлон, Мэл Бланк, Пенни Синглтон, Патрик Л. Зиммерман, Дон Мессик, Джин Вандер Пул, Ронни Шелл, Патти Дьютч, Дэна Хилл-Описание: Космические приключения Джорджа Джетсона, которого назначили вице-президентом компании Спейсли Спрокетс, и отправили со своей семьей работать на орбитальный горнорудный астероид…- релиз: -- Спасибо [url=profile.php?mode=viewprofile&u=3190918]bora86bora[/url] за оцифровку перевода Вартана Дохалова с VHS.
- За перевод с канала СТС спасибо Slink (озвучено "6 канал" Санкт-Петербург по заказу "СТС" 1998 год).
Перевод с канала СТС был немного неудачно записан во время рекламы, поэтому присутствуют 4 вставки с перевода ТК Россия.
- За исходную украинскую дорожку спасибо hurtom.
- Работа с BDRemux'ом [url=profile.php?mode=viewprofile&u=6758562]-Azureus-[/url]-Качество: BDRemux 1080p
Формат: MKV
Видео кодек: AVC
Аудио кодек: AC3, DTS MA
Видео: 1920x1040 , 20002 kbps 1080p / 23.976 fps / 16:9 / High Profile 4.1
Аудио #1: [RUS] 48 kHz, AC3 Dolby Digital, 2/0 (L,R) ch, ~192 kbps kbps avg - /MVO/ R2
Аудио #2: [RUS] 48 kHz, AC3 Dolby Digital, 1/0 (L,R) ch, ~192 kbps kbps avg - /MVO/ СТС
Аудио #3: [RUS] 48 kHz, AC3 Dolby Digital, 2/0 (L,R) ch, ~192 kbps kbps avg - /AVO/ Дохалов
Аудио #4: [UKR] 48 kHz, AC3 Dolby Digital, 2/0 (L,R) ch, ~192 kbps kbps avg - /MVO/ Новий канал
Аудио #5: [ENG] 48 kHz, AC3 Dolby Digital, 3/2 (L,C,R,l,r) + LFE ch, ~448 kbps - /DVD/
Аудио #6: [ENG] DTS MA 2.0 / 48 kHz / 1631 kbps / 16-bit (DTS Core: 2.0 / 48 kHz / 1509 kbps / 16-bit)
субтитры: русские (forced), английские (SDH)
навигация по главам: 12 глав (именные)

MI

Общее
Уникальный идентификатор : 234897844376691223956054546280090203425 (0xB0B7ADE2643136C08229B1A2DA687521)
Полное имя : D:\Jetsons.The Movie\Jetsons. The Movie.1990.BDRemux 1080p.mkv
Формат : Matroska
Версия формата : Version 4 / Version 2
Размер файла : 13,1 Гбайт
Продолжительность : 1 ч. 22 м.
Режим общего битрейта : Переменный
Общий поток : 22,8 Мбит/сек
Название фильма : Jetsons: The Movie.1990.BDRemux 1080p -Azureus-
Дата кодирования : UTC 2016-09-20 20:45:09
Программа кодирования : mkvmerge v9.4.0 ('Knurl') 64bit
Библиотека кодирования : libebml v1.3.4 + libmatroska v1.4.5
Видео
Идентификатор : 1
Формат : AVC
Формат/Информация : Advanced Video Codec
Профиль формата : High@L4.1
Параметр CABAC формата : Да
Параметр ReFrames формата : 4 кадра
Идентификатор кодека : V_MPEG4/ISO/AVC
Продолжительность : 1 ч. 21 м.
Вид битрейта : Переменный
Битрейт : 20,0 Мбит/сек
Максимальный битрейт : 35,0 Мбит/сек
Ширина : 1920 пикселей
Высота : 1080 пикселей
Соотношение сторон : 16:9
Режим частоты кадров : Постоянный
Частота кадров : 23,976 (24000/1001) кадра/сек
Стандарт вещания : NTSC
Цветовое пространство : YUV
Субдискретизация насыщенности : 4:2:0
Битовая глубина : 8 бит
Тип развёртки : Прогрессивная
Бит/(Пиксели*Кадры) : 0.402
Размер потока : 11,5 Гбайт (88%)
Язык : English
Default : Да
Forced : Да
Цветовой диапазон : Limited
Основные цвета : BT.709
Характеристики трансфера : BT.709
Коэффициенты матрицы : BT.709
Аудио #1
Идентификатор : 2
Формат : AC-3
Формат/Информация : Audio Coding 3
Расширение режима : CM (complete main)
Параметр Endianness формата : Big
Идентификатор кодека : A_AC3
Продолжительность : 1 ч. 22 м.
Вид битрейта : Постоянный
Битрейт : 192 Кбит/сек
Каналы : 2 канала
Расположение каналов : Front: L R
Частота : 48,0 КГц
Частота кадров : 31,250 кадров/сек (1536 spf)
Метод сжатия : С потерями
Размер потока : 113 Мбайт (1%)
Заголовок : MVO - R2
Язык : Russian
Default : Да
Forced : Да
Аудио #2
Идентификатор : 3
Формат : AC-3
Формат/Информация : Audio Coding 3
Расширение режима : CM (complete main)
Параметр Endianness формата : Big
Идентификатор кодека : A_AC3
Продолжительность : 1 ч. 22 м.
Вид битрейта : Постоянный
Битрейт : 192 Кбит/сек
Каналы : 1 канал
Расположение каналов : Front: C
Частота : 48,0 КГц
Частота кадров : 31,250 кадров/сек (1536 spf)
Метод сжатия : С потерями
Размер потока : 113 Мбайт (1%)
Заголовок : MVO - CTC
Язык : Russian
Default : Нет
Forced : Нет
Аудио #3
Идентификатор : 4
Формат : AC-3
Формат/Информация : Audio Coding 3
Расширение режима : CM (complete main)
Параметр Endianness формата : Big
Идентификатор кодека : A_AC3
Продолжительность : 1 ч. 22 м.
Вид битрейта : Постоянный
Битрейт : 192 Кбит/сек
Каналы : 2 канала
Расположение каналов : Front: L R
Частота : 48,0 КГц
Частота кадров : 31,250 кадров/сек (1536 spf)
Метод сжатия : С потерями
Размер потока : 113 Мбайт (1%)
Заголовок : AVO - Дохалов
Язык : Russian
Default : Нет
Forced : Нет
Аудио #4
Идентификатор : 5
Формат : AC-3
Формат/Информация : Audio Coding 3
Расширение режима : CM (complete main)
Параметр Endianness формата : Big
Идентификатор кодека : A_AC3
Продолжительность : 1 ч. 22 м.
Вид битрейта : Постоянный
Битрейт : 192 Кбит/сек
Каналы : 2 канала
Расположение каналов : Front: L R
Частота : 48,0 КГц
Частота кадров : 31,250 кадров/сек (1536 spf)
Метод сжатия : С потерями
Размер потока : 113 Мбайт (1%)
Заголовок : MVO - Новий канал
Язык : Ukrainian
Default : Нет
Forced : Нет
Аудио #5
Идентификатор : 6
Формат : AC-3
Формат/Информация : Audio Coding 3
Расширение режима : CM (complete main)
Параметр Endianness формата : Big
Идентификатор кодека : A_AC3
Продолжительность : 1 ч. 22 м.
Вид битрейта : Постоянный
Битрейт : 448 Кбит/сек
Каналы : 6 каналов
Расположение каналов : Front: L C R, Side: L R, LFE
Частота : 48,0 КГц
Частота кадров : 31,250 кадров/сек (1536 spf)
Метод сжатия : С потерями
Размер потока : 263 Мбайт (2%)
Заголовок : ENG 5.1
Язык : English
Default : Нет
Forced : Нет
Аудио #6
Идентификатор : 7
Формат : DTS
Формат/Информация : Digital Theater Systems
Профиль формата : MA / Core
Режим : 16
Параметр Endianness формата : Big
Идентификатор кодека : A_DTS
Продолжительность : 1 ч. 21 м.
Вид битрейта : Переменный / Постоянный
Битрейт : 1631 Кбит/сек / 1509 Кбит/сек
Каналы : 2 канала
Расположение каналов : Front: L R
Частота : 48,0 КГц
Частота кадров : 93,750 кадра/сек (512 spf)
Битовая глубина : 16 бит
Метод сжатия : Без потерь / Lossy
Размер потока : 957 Мбайт (7%)
Заголовок : ENG
Язык : English
Default : Нет
Forced : Нет
Текст #1
Идентификатор : 8
Формат : UTF-8
Идентификатор кодека : S_TEXT/UTF8
Идентификатор кодека/Информация : UTF-8 Plain Text
Продолжительность : 42 м.
Битрейт : 1 бит/сек
Count of elements : 10
Размер потока : 381 байт (0%)
Заголовок : Rus Sub - forced
Язык : Russian
Default : Нет
Forced : Нет
Текст #2
Идентификатор : 9
Формат : UTF-8
Идентификатор кодека : S_TEXT/UTF8
Идентификатор кодека/Информация : UTF-8 Plain Text
Продолжительность : 1 ч. 20 м.
Битрейт : 55 бит/сек
Count of elements : 1113
Размер потока : 32,8 Кбайт (0%)
Заголовок : Eng Sub - sdh
Язык : English
Default : Нет
Forced : Нет
Меню
00:00:00.000 : en:00:00:00.000
00:05:19.653 : en:00:05:19.653
00:09:50.006 : en:00:09:50.006
00:17:08.903 : en:00:17:08.903
00:24:51.073 : en:00:24:51.073
00:32:00.418 : en:00:32:00.418
00:37:17.819 : en:00:37:17.819
00:45:07.038 : en:00:45:07.038
00:53:40.717 : en:00:53:40.717
01:01:05.745 : en:01:01:05.745
01:06:52.717 : en:01:06:52.717
01:15:08.337 : en:01:15:08.337

BDInfo

DISC INFO:
Disc Title: Jetsons.The.Movie.1990.COMPLETE.BLURAY
Disc Size: 14,236,758,611 bytes
Protection: AACS
BD-Java: No
BDInfo: 0.0.2
PLAYLIST REPORT:
Name: 00000.MPLS
Length: 1:21:59.956 (h:m:s.ms)
Size: 14,075,867,136 bytes
Total Bitrate: 22.89 Mbps
VIDEO:
Codec Bitrate Description
----- ------- -----------
MPEG-4 AVC Video 20002 kbps 1080p / 23.976 fps / 16:9 / High Profile 4.1
AUDIO:
Codec Language Bitrate Description
----- -------- ------- -----------
DTS-HD Master Audio English 1631 kbps 2.0 / 48 kHz / 1631 kbps / 16-bit (DTS Core: 2.0 / 48 kHz / 1509 kbps / 16-bit)

_________________
Показать сообщения:    

Текущее время: Сегодня 03:05

Часовой пояс: GMT



Вы не можете начинать темы
Вы не можете отвечать на сообщения
Вы не можете редактировать свои сообщения
Вы не можете удалять свои сообщения
Вы не можете голосовать в опросах
Вы не можете прикреплять файлы к сообщениям
Вы не можете скачивать файлы