Важное объявление!
У Нас Все раздачи мультитрекерные, при нуле пиров в релизах, можете смело вставать на закачку!
 
Автор Сообщение

Shalun

Стаж:
4 года 4 месяца
Сообщений:
802

Репутация: 123

[+] [-]
Вне форума [Профиль] [ЛС]

-Семь / Se7en-Информация о фильме
Название: Семь
Оригинальное название: Se7en
Год выхода: 1995
Жанр: Триллер,Драма,Криминал,Детектив
Режиссер: Дэвид Финчер
В ролях: Брэд Питт, Морган Фриман, Гвинет Пэлтроу, Р. Ли Эрми, Эндрю Кевин Уолкер, Дэниэл Зацапа, Джон Кассини, Боб Макк, Питер Кромби, Рег Э. Кэти
О фильме: Детектив Уильям Сомерсет — ветеран уголовного сыска, мечтающий уйти на пенсию и уехать подальше от города и грешных обитателей. За 7 дней до пенсии на Сомерсета сваливаются две неприятности: молодой напарник Миллс и особо изощренное убийство. Острый ум опытного сыщика сразу определяет, что за этим преступлением, скорее всего, последуют другие. Новости подтверждают его догадку. Поняв, что убийца наказывает свои жертвы за совершенные ими смертные грехи, детектив встает перед выбором: вернуться к работе, либо уйти и передать дело своему менее опытному напарнику?
Сэмпл
Файл
Качество: HDRip (BDRip (1080p))
Видео: XviD, 720х304 , 23.976 fps, ~ 1545 Kbps
Аудио1: (48 kHz,АС3, 6 ch, 448 kbps) MVO
Аудио2: (48 kHz,АС3, 6 ch, 448 kbps) Андрей Гаврилов
Продолжительность: 02:06:47
Перевод: Профессиональный (многоголосный),Авторский (одноголосый закадровый)

MediaInfo

J:зарубежные боевикисемь7.US.Remastered.Edition.HDRip..avi
General
Complete name : J:зарубежные боевикисемь7.US.Remastered.Edition.HDRip..avi
Format : AVI
Format/Info : Audio Video Interleave
Format profile : OpenDML
File size : 2.18 GiB
Duration : 2h 6mn
Overall bit rate : 2 459 Kbps
Movie name : Семь
Genre : Криминал,триллер,детектив
Writing application : VirtualDubModRus 1.5.10.2 (build 2542/release)
Writing library : VirtualDubMod build 2542/release
Video #0
ID : 0
Format : MPEG-4 Visual
Format profile : Advanced Simple@L5
Format settings, BVOP : 2
Format settings, QPel : No
Format settings, GMC : No warppoints
Format settings, Matrix : Default (H.263)
Codec ID : XVID
Codec ID/Hint : XviD
Duration : 2h 6mn
Bit rate : 1 545 Kbps
Width : 720 pixels
Height : 304 pixels
Display aspect ratio : 2.35:1
Frame rate : 23.976 fps
Color space : YUV
Chroma subsampling : 4:2:0
Bit depth : 8 bits
Scan type : Progressive
Compression mode : Lossy
Bits/(Pixel*Frame) : 0.294
Stream size : 1.37 GiB (63%)
Writing library : XviD 64
Audio #1
ID : 1
Format : AC-3
Format/Info : Audio Coding 3
Mode extension : CM (complete main)
Codec ID : 2000
Duration : 2h 6mn
Bit rate mode : Constant
Bit rate : 448 Kbps
Channel(s) : 6 channels
Channel positions : Front: L C R, Side: L R, LFE
Sampling rate : 48.0 KHz
Bit depth : 16 bits
Compression mode : Lossy
Stream size : 406 MiB (18%)
Alignment : Split accross interleaves
Interleave, duration : 42 ms (1.00 video frame)
Interleave, preload duration : 500 ms
Title : MVO
Audio #2
ID : 2
Format : AC-3
Format/Info : Audio Coding 3
Mode extension : CM (complete main)
Codec ID : 2000
Duration : 2h 6mn
Bit rate mode : Constant
Bit rate : 448 Kbps
Channel(s) : 6 channels
Channel positions : Front: L C R, Side: L R, LFE
Sampling rate : 48.0 KHz
Bit depth : 16 bits
Compression mode : Lossy
Stream size : 406 MiB (18%)
Alignment : Split accross interleaves
Interleave, duration : 42 ms (1.00 video frame)
Interleave, preload duration : 500 ms
Title : А.Гаврилов

Скриншоты






_________________
Показать сообщения:    

Текущее время: Сегодня 06:20

Часовой пояс: GMT



Вы не можете начинать темы
Вы не можете отвечать на сообщения
Вы не можете редактировать свои сообщения
Вы не можете удалять свои сообщения
Вы не можете голосовать в опросах
Вы не можете прикреплять файлы к сообщениям
Вы не можете скачивать файлы